Loading...
Error

Запрещенная реальность (Константин Максимов) [2009 г., фантастика, боевик, DVDRip]

Статистика раздачи
Размер:  1,46 GB   |    Зарегистрирован:  6 лет 9 месяцев   |    Скачан:  3 раза

Полного источника не было: 4 года 8 месяцев

Сидов:  0  |  0 KB/s  ]   Личеров:  0  |  0 KB/s  ]

* - сиды/пиры с внешних источников

   
 
Автор Сообщение

GUree Пол:Муж

19-Фев-2010 22:04

Запрещенная реальность


Год выпуска: 2009
Жанр: фантастика, боевик
Страна: Россия
Режиссер: Константин Максимов
В ролях: Игорь Петренко, Александр Балуев, Любовь Толкалина, Владимир Вдовиченков, Лев Прыгунов, Андрей Чубченко, Алексей Дмитриев, Ольга Ковалева, Владимир Панчик, Валерий Гурьев, Тина Канделаки

Сюжет фильма: Он живет в одном мире, а во сне видит другой. Он встречает одну женщину, но узнает в ней другую. Он — Матвей Соболев, бывший агент военной контрразведки, но ему предстоит стать Воином Круга. Потому что равновесие между мирами нарушено. И Конкере уже нашел себе носителя…

  • Мировая премьера: 8 октября 2009
  • Российская премьера: 8 октября 2009, «Централ Партнершип»


Личная оценка: 10 - всем советую

Качество видео: DVDRip

Продолжительность: 01:29:21
Видео: кодек: x264, формат: mkv, размер кадра: 1024х552@720x552, битрейт: 1906 kbps
Аудио: язык: русский, перевод: оригинал, кодек: AC3 5.1, битрейт: 384 kbps

Семпл 1 на multi-up; Семпл 1 на dump
Семпл 2 на multi-up; Семпл 2 на dump

Релиз группы:






General
Complete name : Zapreshennaja.realnost.2009.DVDRip.AVC.mkv
Format : Matroska
File size : 1.46 GiB
Duration : 1h 29mn
Overall bit rate : 2 338 Kbps
Movie name : -=GUree=-
Encoded date : UTC 2010-02-19 22:19:12
Writing application : mkvmerge v3.2.0 ('Beginnings') built on Feb 12 2010 16:46:17
Writing library : libebml v0.7.9 + libmatroska v0.8.1

Video
ID : 1
Format : AVC
Format/Info : Advanced Video Codec
Format profile : High@L4.1
Format settings, CABAC : Yes
Format settings, ReFrames : 10 frames
Muxing mode : Container profile=Unknown@4.1
Codec ID : V_MPEG4/ISO/AVC
Duration : 1h 29mn
Bit rate : 1 907 Kbps
Nominal bit rate : 1 952 Kbps
Width : 720 pixels
Height : 552 pixels
Display aspect ratio : 1.850
Frame rate : 25.000 fps
Resolution : 8 bits
Colorimetry : 4:2:0
Scan type : Progressive
Bits/(Pixel*Frame) : 0.192
Stream size : 1.19 GiB (82%)
Writing library : x264 core 79 r1342kMod e8501ef
Encoding settings : cabac=1 / ref=10 / deblock=1:-2:-1 / analyse=0x3:0x113 / me=tesa / subme=10 / psy=1 / psy_rd=1.0:0.4 / mixed_ref=1 / me_range=32 / chroma_me=1 / trellis=2 / 8x8dct=1 / cqm=0 / deadzone=21,11 / chroma_qp_offset=-4 / threads=6 / nr=0 / decimate=0 / mbaff=0 / constrained_intra=0 / bframes=8 / b_pyramid=0 / b_adapt=2 / b_bias=0 / direct=3 / wpredb=1 / wpredp=2 / keyint=250 / keyint_min=25 / scenecut=40 / rc_lookahead=60 / rc=2pass / mbtree=1 / bitrate=1952 / ratetol=1.0 / qcomp=0.60 / qpmin=10 / qpmax=51 / qpstep=4 / cplxblur=20.0 / qblur=0.5 / vbv_maxrate=50000 / vbv_bufsize=50000 / ip_ratio=1.40 / aq=1:1.00

Audio
ID : 2
Format : AC-3
Format/Info : Audio Coding 3
Codec ID : A_AC3
Duration : 1h 29mn
Bit rate mode : Constant
Bit rate : 384 Kbps
Channel(s) : 6 channels
Channel positions : Front: L C R, Surround: L R, LFE
Sampling rate : 48.0 KHz
Stream size : 245 MiB (16%)
Title : AC3 5.1 384Kb/s
Language : Russian

Этот торрент недоступен для скачивания без регистрации, однако доступен по публичной magnet-ссылке (источники с публичных трекеров). Перед использованием ссылки прочтите, пожалуйста Пользовательское соглашение, а также как можно дольше оставайтесь на раздаче! Для того, чтобы скачать сам торрент-файл (который видит больше источников), а также для того, чтобы поблагодарить релизера, вам необходимо зарегистрироваться. Если регистрироваться лень - вы можете также попробовать скачать релиз по нашим партнерским ссылкам ниже.

[underverse.su].t9045.torrent
Трекер: Зарегистрирован   [ 19.02.2010 22:25 ]  

Статус: проверено (by GUree at 19.02.2010 22:26)
Поблагодарили: пока никто не поблагодарил...
Тип торрента: публичный - доступные источники с открытых трекеров: 
Размер: 1,46 GB (занимает 0,33 DVDR, для записи нужно 1 болванка DVDR/RW)
 
 
Похожие темы
Форум Тема Автор Торрент Отв. Посл. сооб.
Зарубежное кино [DVDRip, Low-Res HDRip, и т.д.] Запрещенная реальность / The Forbidden Dimensions / 2035: Forbidden Dimensions (Кристофер Джеймс Миллер) [2013 г., ужасы, фантастика, триллер, HDRip] VO [den904] Паукан
2 | 0

2 | 2651

84

07.04.2016 01:29

Зарубежное кино [DVDRip, Low-Res HDRip, и т.д.] Запрещенная реальность / The Forbidden Dimensions / 2035: Forbidden Dimensions (Кристофер Джеймс Миллер) [2013 г., ужасы, фантастика, триллер, HDRip] MVO makkol
0 | 0

0 | 795

39

30.03.2016 10:52

Наше кино [DVDRip, Low-Res HDRip, и т.д.] Запрещенная реальность / 2009 / DVDRip (Константин Максимов) [2009 г., фантастика,] niif111
1 | 0

3 | 1558

59

09.11.2009 10:53

Зарубежное кино [HDDVDRip / BDRip / WEB-DL / HDTV 1080/720р] Запрещенная реальность / The Forbidden Dimensions / 2035: Forbidden Dimensions (Кристофер Джеймс Миллер) [2013 г., ужасы, фантастика, триллер, BDRip 720p] MVO + Original makkol
0 | 0

0 | 614

4

30.03.2016 11:03

Зарубежное кино [HDDVDRip / BDRip / WEB-DL / HDTV 1080/720р] Запрещенная реальность / The Forbidden Dimensions / 2035: Forbidden Dimensions (Кристофер Джеймс Миллер) [2013 г., ужасы, фантастика, триллер, BDRip 1080p] MVO + Original makkol
0 | 0

0 | 772

14

30.03.2016 11:09

Архив Запрещенная реальность (Константин Максимов) [2009 г., фантастика, боевик, DVDRip] GanibalKing
0 | 0

3 | 979

3

12.11.2010 23:48



Последний раз редактировалось: GUree (30.08.2011 12:15), всего редактировалось 1 раз

pom1405 Пол:Муж

16-Июн-2011 09:17

очень сильная раздача, боюсь чёб комп не сгорель!!!!!!!!!!!!!

Яндекс.Метрика powered by Sphinx


В Н И М А Н И Е
Сайт не распространяет и не хранит электронные версии произведений, а лишь бесплатно и без коммерческой выгоды (не требуя взамен платы,
SMS и т.д.) предоставляет доступ к создаваемому пользователями каталогу ссылок на торрент-файлы, которые содержат только списки хеш-сумм.
Убедительная просьба с жалобами обращаться напрямую к пользователю, разместившему торрент файл.

Вверх