Loading...
Error

На игре (Павел Санаев) [2009 г., боевик, приключения, DVDRip]

Статистика раздачи
Размер:  2,18 GB   |    Зарегистрирован:  6 лет 9 месяцев   |    Скачан:  1 раз

Полного источника не было: 4 года 10 месяцев

Сидов:  0  |  0 KB/s  ]   Личеров:  0  |  0 KB/s  ]

* - сиды/пиры с внешних источников

   
 
Автор Сообщение

GUree Пол:Муж

19-Фев-2010 21:17

На игре


Год выпуска: 2009
Жанр: боевик, приключения
Страна: Россия
Режиссер: Павел Санаев
В ролях: Алексей Бардуков, Агния Дитковските, Сергей Чирков, Павел Прилучный, Евгений Харланов, Виктор Вержбицкий, Игорь Скляр, Марина Петренко, Тихон Жизневский, Нодар Сирадзе

Сюжет фильма: После оглушительной победы на турнире по киберспорту команде геймеров вручают диски с только что разработанной игрой. Запустив игру, каждый из них подвергается воздействию, переводящему их игровые способности в реальные. Теперь и в жизни они лучшие бойцы, стрелки и гонщики.

Данное событие не остается незамеченным. Властные структуры путем шантажа, обмана и подкупа предлагают геймерам «работу». Но как только обман раскрывается, становится понятно, что они не герои, спасающие страну, а банальные наемные убийцы. Встает вопрос: как быть дальше? К тому же дисков у производителя еще много, и появление таких же, как они, профи — это вопрос времени.

Теперь перед геймерами стоит задача найти тираж и… либо уничтожить его, либо, создав и возглавив целую армию геймеров, диктовать свою волю… Команда разделилась. Каждый идет к своей цели.


  • Мировая премьера: 26 ноября 2009
  • Российская премьера: 26 ноября 2009, «Каропрокат»


Личная оценка: 10 - всем советую

Качество видео: DVDRip

Продолжительность: 01:30:20
Видео: кодек: x264, формат: mkv, размер кадра: 720x432@1024x432, битрейт: 2189 kbps
Аудио #1: язык: русский, перевод: оригинал, кодек: AC3 5.1, битрейт: 448 kbps
Аудио #2: язык: русский, перевод: оригинал, кодек: DTS 5.1, битрейт: 754 kbps

Семпл 1 на multi-up; Семпл 1 на dump
Семпл 2 на multi-up; Семпл 2 на dump

Релиз группы:






General
Complete name : Na.igre.2009.DVDRip.AVC.mkv
Format : Matroska
File size : 2.18 GiB
Duration : 1h 30mn
Overall bit rate : 3 461 Kbps
Movie name : -=GUree=-
Encoded date : UTC 2010-02-17 11:53:03
Writing application : mkvmerge v3.2.0 ('Beginnings') built on Feb 12 2010 16:46:17
Writing library : libebml v0.7.9 + libmatroska v0.8.1

Video
ID : 1
Format : AVC
Format/Info : Advanced Video Codec
Format profile : High@L4.1
Format settings, CABAC : Yes
Format settings, ReFrames : 10 frames
Muxing mode : Container profile=Unknown@4.1
Codec ID : V_MPEG4/ISO/AVC
Duration : 1h 30mn
Bit rate : 2 190 Kbps
Nominal bit rate : 2 256 Kbps
Width : 720 pixels
Height : 432 pixels
Display aspect ratio : 2.35:1
Original display aspect ratio : 2.35:1
Frame rate : 25.000 fps
Resolution : 8 bits
Colorimetry : 4:2:0
Scan type : Progressive
Bits/(Pixel*Frame) : 0.282
Stream size : 1.38 GiB (63%)
Writing library : x264 core 79 r1342kMod e8501ef
Encoding settings : cabac=1 / ref=10 / deblock=1:-2:-1 / analyse=0x3:0x113 / me=tesa / subme=10 / psy=1 / psy_rd=1.0:0.4 / mixed_ref=1 / me_range=32 / chroma_me=1 / trellis=2 / 8x8dct=1 / cqm=0 / deadzone=21,11 / chroma_qp_offset=-4 / threads=6 / nr=0 / decimate=0 / mbaff=0 / constrained_intra=0 / bframes=8 / b_pyramid=0 / b_adapt=2 / b_bias=0 / direct=3 / wpredb=1 / wpredp=2 / keyint=250 / keyint_min=25 / scenecut=40 / rc_lookahead=60 / rc=2pass / mbtree=1 / bitrate=2256 / ratetol=1.0 / qcomp=0.60 / qpmin=10 / qpmax=51 / qpstep=4 / cplxblur=20.0 / qblur=0.5 / vbv_maxrate=50000 / vbv_bufsize=50000 / ip_ratio=1.40 / aq=1:1.00

Audio #1
ID : 2
Format : AC-3
Format/Info : Audio Coding 3
Codec ID : A_AC3
Duration : 1h 30mn
Bit rate mode : Constant
Bit rate : 448 Kbps
Channel(s) : 6 channels
Channel positions : Front: L C R, Surround: L R, LFE
Sampling rate : 48.0 KHz
Stream size : 289 MiB (13%)
Title : AC3 5.1 448Kb/s
Language : Russian

Audio #2
ID : 3
Format : DTS
Format/Info : Digital Theater Systems
Codec ID : A_DTS
Duration : 1h 30mn
Bit rate mode : Constant
Bit rate : 755 Kbps
Channel(s) : 6 channels
Channel positions : Front: L C R, Surround: L R, LFE
Sampling rate : 48.0 KHz
Resolution : 24 bits
Stream size : 488 MiB (22%)
Title : DTS 5.1 756Kb/s
Language : Russian

Этот торрент недоступен для скачивания без регистрации, однако доступен по публичной magnet-ссылке (источники с публичных трекеров). Перед использованием ссылки прочтите, пожалуйста Пользовательское соглашение, а также как можно дольше оставайтесь на раздаче! Для того, чтобы скачать сам торрент-файл (который видит больше источников), а также для того, чтобы поблагодарить релизера, вам необходимо зарегистрироваться. Если регистрироваться лень - вы можете также попробовать скачать релиз по нашим партнерским ссылкам ниже.

[underverse.su].t9040.torrent
Трекер: Зарегистрирован   [ 19.02.2010 21:17 ]  

Статус: проверено (by GUree at 19.02.2010 21:20)
Поблагодарили: пока никто не поблагодарил...
Тип торрента: публичный - доступные источники с открытых трекеров: 
Размер: 2,18 GB (занимает 1/2 DVDR, для записи нужно 1 болванка DVDR/RW)
 
 
Похожие темы
Форум Тема Автор Торрент Отв. Посл. сооб.
Наше кино [DVDRip, Low-Res HDRip, и т.д.] На игре (Павел Санаев) [2009 г., боевик, приключения, DVDRip] Joey
0 | 0

9 | 2019

123

23.03.2010 14:18



Последний раз редактировалось: GUree (21.03.2010 00:27), всего редактировалось 1 раз

Armin Пол:Муж

19-Фев-2010 22:29

А шо нема DTS 5.1 з бітрейтом 1536?

GUree Пол:Муж

19-Фев-2010 22:33

Нема.... :D

Яндекс.Метрика powered by Sphinx


В Н И М А Н И Е
Сайт не распространяет и не хранит электронные версии произведений, а лишь бесплатно и без коммерческой выгоды (не требуя взамен платы,
SMS и т.д.) предоставляет доступ к создаваемому пользователями каталогу ссылок на торрент-файлы, которые содержат только списки хеш-сумм.
Убедительная просьба с жалобами обращаться напрямую к пользователю, разместившему торрент файл.

Вверх