Loading...
Error

Похороните меня за плинтусом (Сергей Снежкин) [2009 г., драма, DVDRip]

Статистика раздачи
Размер:  2,18 GB   |    Зарегистрирован:  6 лет 9 месяцев   |    Скачан:  1 раз

Полного источника не было: 4 года 10 месяцев

Сидов:  0  |  0 KB/s  ]   Личеров:  0  |  0 KB/s  ]

* - сиды/пиры с внешних источников

   
 
Автор Сообщение

GUree Пол:Муж

19-Фев-2010 19:44

Похороните меня за плинтусом


Год выпуска: 2009
Жанр: драма
Страна: Россия
Режиссер: Сергей Снежкин
В ролях: Александр Дробитько, Светлана Крючкова, Алексей Петренко, Мария Шукшина, Константин Воробьев и др.

Сюжет фильма: Фильм о 8-летнем мальчике Саше Савельеве. Он живет у бабушки, потому что та не доверяет воспитание ребенка своей дочери, у которой новый муж и которая, по мнению бабушки, беспутная. Бабуля, настоящий тиран, и мать рвут ребенка на части.

  • Мировая премьера: 23 декабря 2009
  • Российская премьера: 3 декабря 2009, «Аргумент Кино»


Личная оценка: 10 - всем советую

Качество видео: DVDRip

Продолжительность: 01:50:50
Видео: кодек: x264, формат: mkv, размер кадра: 720x528@1024x528, битрейт: 2312 kbps
Аудио: язык: русский, перевод: оригинал, кодек: AC3 5.1, битрейт: 448 kbps

Семпл 1 на multi-up; Семпл 1 на dump
Семпл 2 на multi-up; Семпл 2 на dump
Скриншоты сравнения с исходником DVD5

Релиз группы:






General
Complete name : Pohoronite_menya_za_plintusom.2009.DVDRip.AVC.mkv
Format : Matroska
File size : 2.18 GiB
Duration : 1h 50mn
Overall bit rate : 2 817 Kbps
Movie name : -=GUree=-
Encoded date : UTC 2010-02-19 08:22:53
Writing application : mkvmerge v3.2.0 ('Beginnings') built on Feb 12 2010 16:46:17
Writing library : libebml v0.7.9 + libmatroska v0.8.1

Video
ID : 1
Format : AVC
Format/Info : Advanced Video Codec
Format profile : High@L4.1
Format settings, CABAC : Yes
Format settings, ReFrames : 10 frames
Muxing mode : Container profile=Unknown@4.1
Codec ID : V_MPEG4/ISO/AVC
Duration : 1h 50mn
Bit rate : 2 313 Kbps
Nominal bit rate : 2 367 Kbps
Width : 720 pixels
Height : 528 pixels
Display aspect ratio : 1.939
Frame rate : 25.000 fps
Resolution : 8 bits
Colorimetry : 4:2:0
Scan type : Progressive
Bits/(Pixel*Frame) : 0.243
Stream size : 1.79 GiB (82%)
Writing library : x264 core 79 r1342kMod e8501ef
Encoding settings : cabac=1 / ref=10 / deblock=1:-2:-1 / analyse=0x3:0x113 / me=tesa / subme=10 / psy=1 / psy_rd=1.0:0.4 / mixed_ref=1 / me_range=32 / chroma_me=1 / trellis=2 / 8x8dct=1 / cqm=0 / deadzone=21,11 / chroma_qp_offset=-4 / threads=6 / nr=0 / decimate=0 / mbaff=0 / constrained_intra=0 / bframes=8 / b_pyramid=0 / b_adapt=2 / b_bias=0 / direct=3 / wpredb=1 / wpredp=2 / keyint=250 / keyint_min=25 / scenecut=40 / rc_lookahead=60 / rc=2pass / mbtree=1 / bitrate=2367 / ratetol=1.0 / qcomp=0.60 / qpmin=10 / qpmax=51 / qpstep=4 / cplxblur=20.0 / qblur=0.5 / vbv_maxrate=50000 / vbv_bufsize=50000 / ip_ratio=1.40 / aq=1:1.00

Audio
ID : 2
Format : AC-3
Format/Info : Audio Coding 3
Codec ID : A_AC3
Duration : 1h 50mn
Bit rate mode : Constant
Bit rate : 448 Kbps
Channel(s) : 6 channels
Channel positions : Front: L C R, Surround: L R, LFE
Sampling rate : 48.0 KHz
Stream size : 355 MiB (16%)
Title : AC3 5.1 448Kb/s
Language : Russian

Этот торрент недоступен для скачивания без регистрации, однако доступен по публичной magnet-ссылке (источники с публичных трекеров). Перед использованием ссылки прочтите, пожалуйста Пользовательское соглашение, а также как можно дольше оставайтесь на раздаче! Для того, чтобы скачать сам торрент-файл (который видит больше источников), а также для того, чтобы поблагодарить релизера, вам необходимо зарегистрироваться. Если регистрироваться лень - вы можете также попробовать скачать релиз по нашим партнерским ссылкам ниже.

[underverse.su].t9036.torrent
Трекер: Зарегистрирован   [ 19.02.2010 19:44 ]  

Статус: проверено (by GUree at 19.02.2010 19:57)
Поблагодарили: пока никто не поблагодарил...
Тип торрента: публичный - доступные источники с открытых трекеров: 
Размер: 2,18 GB (занимает 1/2 DVDR, для записи нужно 1 болванка DVDR/RW)
 
 
Похожие темы
Форум Тема Автор Торрент Отв. Посл. сооб.
Наше кино [DVDRip, Low-Res HDRip, и т.д.] Похороните меня за плинтусом / 2009 / DVDRip (Сергей Снежкин) [2009 г., драма, DVDRip] niif111
0 | 0

4 | 1760

39

16.12.2009 23:45

Наше кино [DVDRip, Low-Res HDRip, и т.д.] Похороните меня за плинтусом (Сергей Снежкин) [2008 г., драма, DVDRip] 90ytr90
126 | 1

0 | 405

11

06.01.2015 17:33

* Архив Похороните меня за плинтусом (Игорь Коняев) [2009 г., драма, TVRip] NMZ

3 | 1317

30.08.2010 00:06

]'/[;.pl, 

13-Фев-2011 16:16

:no: :good: :o

johnflower 

14-Июл-2012 17:52

норм

Яндекс.Метрика powered by Sphinx


В Н И М А Н И Е
Сайт не распространяет и не хранит электронные версии произведений, а лишь бесплатно и без коммерческой выгоды (не требуя взамен платы,
SMS и т.д.) предоставляет доступ к создаваемому пользователями каталогу ссылок на торрент-файлы, которые содержат только списки хеш-сумм.
Убедительная просьба с жалобами обращаться напрямую к пользователю, разместившему торрент файл.

Вверх