Loading...
Error

Тариф Новогодний (Евгений Бедарев) [2009 г., фэнтези, комедия, BDRip]

Статистика раздачи
Размер:  1,46 GB   |    Зарегистрирован:  6 лет 9 месяцев   |    Скачан:  0 раз

Полного источника не было: 4 года 10 месяцев

Сидов:  0  |  0 KB/s  ]   Личеров:  0  |  0 KB/s  ]

* - сиды/пиры с внешних источников

   
 
Автор Сообщение

GUree Пол:Муж

12-Фев-2010 22:36

Тариф Новогодний


Год выпуска: 2009
Жанр: фэнтези, комедия
Страна: Россия
Режиссер: Евгений Бедарев
В ролях: Валерия Ланская, Максим Матвеев, Екатерина Маликова, Евгений Славский, Мария Аронова, Дмитрий Дюжев, Мирослава Карпович, Светлана Крючкова, Михаил Пореченков, Роман Полянский

Сюжет фильма: Новогодняя ночь всегда полна чудес и сюрпризов. Чудеса нашего времени часто происходят благодаря техническому прогрессу, хотя и не без участия Деда Мороза, который нынче может оказаться простым продавцом телефона Мечты… Так и у героев этой истории: Андрей купил новый телефон, а под бой курантов набрал наугад номер, чтобы поздравить с Новым годом совершенно незнакомого человека — такая у них была традиция с друзьями на Новый год...

  • Российская премьера: 4 декабря 2008, «Кино Сити Прокат»


Личная оценка: 10 - всем советую

Качество видео: BDRip

Продолжительность: 01:26:08
Видео: кодек: x264, формат: mkv, размер кадра: 1024x432, битрейт: 1993 kbps
Аудио: язык: русский, перевод: оригинал, кодек: AC3 5.1, битрейт: 384 kbps

Семпл 1 на multi-up; Семпл 1 на dump
Семпл 2 на multi-up; Семпл 2 на dump

Релиз группы:






General
Complete name : Tarif_Novogodniy.2008.BDRip.AVC.mkv
Format : Matroska
File size : 1.46 GiB
Duration : 1h 26mn
Overall bit rate : 2 426 Kbps
Movie name : -=GUree=-
Encoded date : UTC 2010-02-12 22:21:02
Writing application : mkvmerge v3.1.0 ('Happy up here') built on Feb 6 2010 14:05:36
Writing library : libebml v0.7.9 + libmatroska v0.8.1

Video
ID : 1
Format : AVC
Format/Info : Advanced Video Codec
Format profile : High@L4.1
Format settings, CABAC : Yes
Format settings, ReFrames : 8 frames
Muxing mode : Container profile=Unknown@4.1
Codec ID : V_MPEG4/ISO/AVC
Duration : 1h 26mn
Bit rate : 1 994 Kbps
Nominal bit rate : 2 040 Kbps
Width : 1 024 pixels
Height : 432 pixels
Display aspect ratio : 2.35:1
Frame rate : 23.976 fps
Resolution : 8 bits
Colorimetry : 4:2:0
Scan type : Progressive
Bits/(Pixel*Frame) : 0.188
Stream size : 1.20 GiB (82%)
Writing library : x264 core 79 r1342kMod e8501ef
Encoding settings : cabac=1 / ref=8 / deblock=1:-2:-1 / analyse=0x3:0x113 / me=tesa / subme=10 / psy=1 / psy_rd=1.0:0.4 / mixed_ref=1 / me_range=32 / chroma_me=1 / trellis=2 / 8x8dct=1 / cqm=0 / deadzone=21,11 / chroma_qp_offset=-4 / threads=6 / nr=0 / decimate=0 / mbaff=0 / constrained_intra=0 / bframes=6 / b_pyramid=0 / b_adapt=2 / b_bias=0 / direct=3 / wpredb=1 / wpredp=2 / keyint=250 / keyint_min=25 / scenecut=40 / rc_lookahead=60 / rc=2pass / mbtree=1 / bitrate=2040 / ratetol=1.0 / qcomp=0.60 / qpmin=10 / qpmax=51 / qpstep=4 / cplxblur=20.0 / qblur=0.5 / vbv_maxrate=50000 / vbv_bufsize=50000 / ip_ratio=1.40 / aq=1:1.00

Audio
ID : 2
Format : AC-3
Format/Info : Audio Coding 3
Codec ID : A_AC3
Duration : 1h 26mn
Bit rate mode : Constant
Bit rate : 384 Kbps
Channel(s) : 6 channels
Channel positions : Front: L C R, Surround: L R, LFE
Sampling rate : 48.0 KHz
Stream size : 237 MiB (16%)

Этот торрент недоступен для скачивания без регистрации, однако доступен по публичной magnet-ссылке (источники с публичных трекеров). Перед использованием ссылки прочтите, пожалуйста Пользовательское соглашение, а также как можно дольше оставайтесь на раздаче! Для того, чтобы скачать сам торрент-файл (который видит больше источников), а также для того, чтобы поблагодарить релизера, вам необходимо зарегистрироваться. Если регистрироваться лень - вы можете также попробовать скачать релиз по нашим партнерским ссылкам ниже.

[underverse.su].t8892.torrent
Трекер: Зарегистрирован   [ 12.02.2010 22:36 ]  

Статус: проверено (by GUree at 12.02.2010 22:49)
Поблагодарили: пока никто не поблагодарил...
Тип торрента: публичный - доступные источники с открытых трекеров: 
Размер: 1,46 GB (занимает 0,33 DVDR, для записи нужно 1 болванка DVDR/RW)
 
 
Похожие темы
Форум Тема Автор Торрент Отв. Посл. сооб.
Наше кино HQ Тариф Новогодний (Евгений Бедарев) [2008 г., Фэнтези, комедия, BDRip] Паукан
0 | 0

0 | 2083

9

20.03.2009 00:13

* Архив Тариф Новогодний (Евгений Бедарев) [2008 г., фэнтези, комедия, BDRip-AVC 720p] Zver-Mix

1 | 886

29.08.2010 23:52


Яндекс.Метрика powered by Sphinx


В Н И М А Н И Е
Сайт не распространяет и не хранит электронные версии произведений, а лишь бесплатно и без коммерческой выгоды (не требуя взамен платы,
SMS и т.д.) предоставляет доступ к создаваемому пользователями каталогу ссылок на торрент-файлы, которые содержат только списки хеш-сумм.
Убедительная просьба с жалобами обращаться напрямую к пользователю, разместившему торрент файл.

Вверх