Loading...
Error

Совокупность лжи / Body of Lies (Ридли Скотт / Ridley Scott) [2008 г., боевик, триллер, драма, BDRip]

Статистика раздачи
Размер:  2,92 GB   |    Зарегистрирован:  6 лет 9 месяцев   |    Скачан:  1 раз

Полного источника не было: 10 месяцев

Сидов:  0  |  0 KB/s  ]   Личеров:  0  |  0 KB/s  ]

* - сиды/пиры с внешних источников

   
 
Автор Сообщение

GUree Пол:Муж

09-Фев-2010 21:41

Совокупность лжи / Body of Lies


Год выпуска: 2008
Жанр: боевик, триллер, драма
Страна: США
Режиссер: Ридли Скотт / Ridley Scott
В ролях: Леонардо ДиКаприо, Рассел Кроу, Марк Стронг, Голшифт Фарахани, Оскар Айзек, Али Сулимэн, Алон Абутбул, Винс Колосимо, Саймон МакБерни, Мехди Неббу и др.

Сюжет фильма: ЦРУ охотится на руководителя серии террористических атак. Роджер Феррис является агентом национальной разведки, он перемещается по всему свету, пытаясь предотвратить любые нежелательные события. Око в небе, спутник, наблюдает за ним. На другом конце этой связи ветеран ЦРУ Эд Хоффман, который отслеживает события издалека.

Чем ближе подбирается Феррис к своей цели, тем явственнее понимает, что доверие — это одновременно и опасная штука, и то единственное, что позволит ему остаться в живых...


  • Мировая премьера: 5 октября 2008
  • Российская премьера: 20 ноября 2008, «Каро-Премьер»




Личная оценка: 10 - всем советую

Качество видео: BDRip

Продолжительность: 02:08:18
Видео: кодек: x264, формат: mkv, размер кадра: 1024x424, битрейт: 2298 kbps
Аудио #1: язык: русский, перевод: дублированный (дубляж), кодек: AC3 5.1, битрейт: 448 kbps
Аудио #2: язык: английский, перевод: оригинал, кодек: AC3 5.1, битрейт: 448 kbps
Субтитры #1: тип: вшитые отключаемые, язык: русский(надписи), формат: S_TEXT/UTF8
Субтитры #2: тип: вшитые отключаемые, язык: русский, формат: S_TEXT/UTF8
Субтитры #3: тип: вшитые отключаемые, язык: английский, формат: S_TEXT/UTF8

Семпл 1 на multi-up; Семпл 1 на dump
Семпл 2 на multi-up; Семпл 2 на dump

Релиз группы:






General
Complete name : BODY_OF_LIES.2008.BDRip.AVC.mkv
Format : Matroska
File size : 2.92 GiB
Duration : 2h 8mn
Overall bit rate : 3 259 Kbps
Movie name : -=GUree=-
Encoded date : UTC 2010-02-09 10:48:04
Writing application : mkvmerge v2.9.9 ('Tutu') built on Nov 25 2009 21:13:32
Writing library : libebml v0.7.9 + libmatroska v0.8.1

Video
ID : 1
Format : AVC
Format/Info : Advanced Video Codec
Format profile : High@L4.1
Format settings, CABAC : Yes
Format settings, ReFrames : 8 frames
Muxing mode : Container profile=Unknown@4.1
Codec ID : V_MPEG4/ISO/AVC
Duration : 2h 8mn
Bit rate : 2 298 Kbps
Nominal bit rate : 2 362 Kbps
Width : 1 024 pixels
Height : 424 pixels
Display aspect ratio : 2.40:1
Frame rate : 23.976 fps
Resolution : 8 bits
Colorimetry : 4:2:0
Scan type : Progressive
Bits/(Pixel*Frame) : 0.221
Stream size : 2.06 GiB (70%)
Writing library : x264 core 79 r1342kMod e8501ef
Encoding settings : cabac=1 / ref=8 / deblock=1:-2:-1 / analyse=0x3:0x113 / me=tesa / subme=10 / psy=1 / psy_rd=1.0:0.4 / mixed_ref=1 / me_range=32 / chroma_me=1 / trellis=2 / 8x8dct=1 / cqm=0 / deadzone=21,11 / chroma_qp_offset=-4 / threads=6 / nr=0 / decimate=0 / mbaff=0 / constrained_intra=0 / bframes=6 / b_pyramid=0 / b_adapt=2 / b_bias=0 / direct=3 / wpredb=1 / wpredp=2 / keyint=250 / keyint_min=25 / scenecut=40 / rc_lookahead=60 / rc=2pass / mbtree=1 / bitrate=2362 / ratetol=1.0 / qcomp=0.60 / qpmin=10 / qpmax=51 / qpstep=4 / cplxblur=20.0 / qblur=0.5 / vbv_maxrate=50000 / vbv_bufsize=50000 / ip_ratio=1.40 / aq=1:1.00
Language : English

Audio #1
ID : 2
Format : AC-3
Format/Info : Audio Coding 3
Codec ID : A_AC3
Duration : 2h 8mn
Bit rate mode : Constant
Bit rate : 448 Kbps
Channel(s) : 6 channels
Channel positions : Front: L C R, Surround: L R, LFE
Sampling rate : 48.0 KHz
Stream size : 411 MiB (14%)
Title : AC3 5.1 448Kb/s
Language : Russian

Audio #2
ID : 3
Format : AC-3
Format/Info : Audio Coding 3
Codec ID : A_AC3
Duration : 2h 8mn
Bit rate mode : Constant
Bit rate : 448 Kbps
Channel(s) : 6 channels
Channel positions : Front: L C R, Surround: L R, LFE
Sampling rate : 48.0 KHz
Stream size : 411 MiB (14%)
Title : AC3 5.1 448Kb/s
Language : English

Text #1
ID : 4
Format : UTF-8
Codec ID : S_TEXT/UTF8
Codec ID/Info : UTF-8 Plain Text
Language : Russian

Text #2
ID : 5
Format : UTF-8
Codec ID : S_TEXT/UTF8
Codec ID/Info : UTF-8 Plain Text
Language : Russian

Text #3
ID : 6
Format : UTF-8
Codec ID : S_TEXT/UTF8
Codec ID/Info : UTF-8 Plain Text
Language : English

Этот торрент недоступен для скачивания без регистрации, однако доступен по публичной magnet-ссылке (источники с публичных трекеров). Перед использованием ссылки прочтите, пожалуйста Пользовательское соглашение, а также как можно дольше оставайтесь на раздаче! Для того, чтобы скачать сам торрент-файл (который видит больше источников), а также для того, чтобы поблагодарить релизера, вам необходимо зарегистрироваться. Если регистрироваться лень - вы можете также попробовать скачать релиз по нашим партнерским ссылкам ниже.

[underverse.su].t8829.torrent
Трекер: Зарегистрирован   [ 09.02.2010 21:41 ]  

Статус: проверено (by GUree at 09.02.2010 21:53)
Поблагодарили: пока никто не поблагодарил...
Тип торрента: публичный - доступные источники с открытых трекеров: 
Размер: 2,92 GB (занимает 0,67 DVDR, для записи нужно 1 болванка DVDR/RW)
 
 
Похожие темы
Форум Тема Автор Торрент Отв. Посл. сооб.
* Архив Совокупность лжи / Body of Lies (Ридли Скотт) [2008 г., боевик, триллер, драма, BDRip] floatrx

7 | 1119

29.08.2010 23:52

* Архив Совокупность лжи / Body of Lies (Ридли Скотт) [2008 г., боевик, триллер, драма, BDRip 720p] GUree

1 | 851

30.08.2010 01:30

Архив Совокупность лжи / Body of Lies (Ридли Скотт) [2008 г., боевик, триллер, драма, BDRip 1080p] Bratok
0 | 0

1 | 935

1

16.06.2011 08:09

sexfuck 

21-Май-2011 04:39

ауууу

Яндекс.Метрика powered by Sphinx


В Н И М А Н И Е
Сайт не распространяет и не хранит электронные версии произведений, а лишь бесплатно и без коммерческой выгоды (не требуя взамен платы,
SMS и т.д.) предоставляет доступ к создаваемому пользователями каталогу ссылок на торрент-файлы, которые содержат только списки хеш-сумм.
Убедительная просьба с жалобами обращаться напрямую к пользователю, разместившему торрент файл.

Вверх