Loading...
Error

(Musical) VA - Andrew Lloyd Webber - Призрак Оперы (Русская версия) (2015) [FLAC (Tracks+.Cue) Lossless]

Статистика раздачи
Размер:  549 MB   |    Зарегистрирован:  9 месяцев   |    Скачан:  5 раз

Полного источника не было: 6 часов

Сидов:  0  |  0 KB/s  ]   Личеров:  0  |  0 KB/s  ]

* - сиды/пиры с внешних источников

   
 
Автор Сообщение

Бишеп Пол:Муж

15-Фев-2018 20:09

Andrew Lloyd Webber - Призрак Оперы

Жанр: Musical
Год выпуска: 2015
Источник: CD
Производитель диска: The Really Useful Group Ltd. - UL 150657
Аудиокодек: FLAC
Тип рипа: Tracks+.CUE
Битрейт аудио: lossless
Продолжительность: 01:13:15


Треклист:
01. Увертюра (2:14)
02. Т. Котова, Е. Зайцев - Думай обо мне (3:27)
03. И.Ожогин, В. Мигалина, Е. Бахтиярова - Ангел музыки (2:26)
04. Т. Котова, И. Ожогин - Зеркало (1:58)
05. Е. Бахтиярова, Д. Ермак, артисты ансамбля - Призрак Оперы (4:22)
06. И. Ожогин - Музыка ночи (4:58)
07. Артисты ансамбля - Примадонна (3:30)
08. Т. Котова, Е. Зайцев - Все, о чем молю (4:14)
09. И. Ожогин, Т. Котова, Е. Зайцев - Все, о чем молю (реприза) (2:22)
10. Антракт (2:14)
11. Артисты ансамбля - Маскарад (5:15)
12. Е. Бахтиярова - Я хочу, чтоб вновь ты был со мной (3:14)
13. Т. Котова, Д. Ермак - Мы пересекли черту (4:29)
14. Т. Котова, Д. Ермак, Е. Зайцев, артисты ансамбля - В логове Призрака (12:11)
15. Е. Бахтиярова, Е. Зайцев - Думай обо мне (бонус) (3:29)
16. Артисты ансамбля - Примадонна (бонус) (3:31)
17. Д. Ермак - Музыка ночи (бонус) (4:59)
18. Т. Котова, И. Ожогин, артисты ансамбля - Призрак Оперы (бонус) (4:22)

Код:

Exact Audio Copy V1.0 beta 3 from 29. August 2011

Отчёт EAC об извлечении, выполненном 29. октября 2015, 22:08

Various Artists / Призрак Оперы

Дисковод: PIONEER DVD-RW  DVR-218L   Adapter: 0  ID: 0

Режим чтения                 : Достоверность
Использование точного потока : Да
Отключение кэша аудио        : Да
Использование указателей C2  : Нет

Коррекция смещения при чтении                     : 6
Способность читать области Lead-in и Lead-out     : Нет
Заполнение пропущенных сэмплов тишиной            : Да
Удаление блоков с тишиной в начале и конце        : Нет
При вычислениях CRC использовались нулевые сэмплы : Да
Интерфейс                                         : Встроенный Win32-интерфейс для Win NT/2000
Обработка зазоров                                 : Добавлено к предыдущему треку

Выходной формат          : Пользовательский кодировщик
Выбранный битрейт        : 128 kBit/s
Качество                 : Высокий
Добавление ID3-тега      : Нет
Утилита сжатия           : C:\Program Files (x86)\Exact Audio Copy\Flac\flac.exe
Дополнительные параметры : -V -7 -T "Genre=%genre%" -T "Artist=%artist%" -T "Title=%title%" -T "Album=%albumtitle%" -T "Date=%year%" -T "Tracknumber=%tracknr%" -T "Comment=%comment%" %source%

TOC извлечённого CD

     Трек |   Старт  | Длительность | Начальный сектор | Конечный сектор
    ---------------------------------------------------------------------
       1  |  0:00.00 |    2:13.47   |           0      |      10021     
       2  |  2:13.47 |    3:26.43   |       10022      |      25514     
       3  |  5:40.15 |    2:25.70   |       25515      |      36459     
       4  |  8:06.10 |    1:57.72   |       36460      |      45306     
       5  | 10:04.07 |    4:22.05   |       45307      |      64961     
       6  | 14:26.12 |    4:58.34   |       64962      |      87345     
       7  | 19:24.46 |    3:30.12   |       87346      |     103107     
       8  | 22:54.58 |    4:13.60   |      103108      |     122142     
       9  | 27:08.43 |    2:22.15   |      122143      |     132807     
      10  | 29:30.58 |    2:13.74   |      132808      |     142856     
      11  | 31:44.57 |    5:15.18   |      142857      |     166499     
      12  | 37:00.00 |    3:13.59   |      166500      |     181033     
      13  | 40:13.59 |    4:29.11   |      181034      |     201219     
      14  | 44:42.70 |   12:11.36   |      201220      |     256080     
      15  | 56:54.31 |    3:28.70   |      256081      |     271750     
      16  | 60:23.26 |    3:30.42   |      271751      |     287542     
      17  | 63:53.68 |    4:58.53   |      287543      |     309945     
      18  | 68:52.46 |    4:22.04   |      309946      |     329599     

Трек  1

     Имя файла E:\_VIDEO\_seriaЛЫ_\!!!muz\Призрак Оперы (Русская версия) - 2015\01 Various Artists - Увертюра.wav

     Длина предзазора  0:00:02.00

     Пиковый уровень 92.9 %
     Скорость извлечения 1.0 X
     Качество трека 100.0 %
     CRC теста 5196DF4E
     CRC копии 5196DF4E
     Трек не обнаружен в базе AccurateRip
     Копирование... OK

Трек  2

     Имя файла E:\_VIDEO\_seriaЛЫ_\!!!muz\Призрак Оперы (Русская версия) - 2015\02 Т. Котова, Е. Зайцев - Думай обо мне.wav

     Длина предзазора  0:00:01.77

     Пиковый уровень 90.0 %
     Скорость извлечения 1.1 X
     Качество трека 100.0 %
     CRC теста E9502A86
     CRC копии E9502A86
     Трек не обнаружен в базе AccurateRip
     Копирование... OK

Трек  3

     Имя файла E:\_VIDEO\_seriaЛЫ_\!!!muz\Призрак Оперы (Русская версия) - 2015\03 И.Ожогин, В. Мигалина, Е. Бахтиярова - Ангел музыки.wav

     Длина предзазора  0:00:01.77

     Пиковый уровень 78.6 %
     Скорость извлечения 1.2 X
     Качество трека 100.0 %
     CRC теста 2B520AA6
     CRC копии 2B520AA6
     Трек не обнаружен в базе AccurateRip
     Копирование... OK

Трек  4

     Имя файла E:\_VIDEO\_seriaЛЫ_\!!!muz\Призрак Оперы (Русская версия) - 2015\04 Т. Котова, И. Ожогин - Зеркало.wav

     Длина предзазора  0:00:01.77

     Пиковый уровень 83.5 %
     Скорость извлечения 1.1 X
     Качество трека 100.0 %
     CRC теста 49EFADDC
     CRC копии 49EFADDC
     Трек не обнаружен в базе AccurateRip
     Копирование... OK

Трек  5

     Имя файла E:\_VIDEO\_seriaЛЫ_\!!!muz\Призрак Оперы (Русская версия) - 2015\05 Е. Бахтиярова, Д. Ермак, артисты ансамбля - Призрак Оперы.wav

     Длина предзазора  0:00:01.77

     Пиковый уровень 93.0 %
     Скорость извлечения 1.4 X
     Качество трека 100.0 %
     CRC теста 228F07D0
     CRC копии 228F07D0
     Трек не обнаружен в базе AccurateRip
     Копирование... OK

Трек  6

     Имя файла E:\_VIDEO\_seriaЛЫ_\!!!muz\Призрак Оперы (Русская версия) - 2015\06 И. Ожогин - Музыка ночи.wav

     Длина предзазора  0:00:01.77

     Пиковый уровень 88.6 %
     Скорость извлечения 1.4 X
     Качество трека 99.9 %
     CRC теста C5CC85ED
     CRC копии C5CC85ED
     Трек не обнаружен в базе AccurateRip
     Копирование... OK

Трек  7

     Имя файла E:\_VIDEO\_seriaЛЫ_\!!!muz\Призрак Оперы (Русская версия) - 2015\07 Артисты ансамбля - Примадонна.wav

     Длина предзазора  0:00:01.77

     Пиковый уровень 95.7 %
     Скорость извлечения 1.3 X
     Качество трека 99.9 %
     CRC теста C2FB32A6
     CRC копии C2FB32A6
     Трек не обнаружен в базе AccurateRip
     Копирование... OK

Трек  8

     Имя файла E:\_VIDEO\_seriaЛЫ_\!!!muz\Призрак Оперы (Русская версия) - 2015\08 Т. Котова, Е. Зайцев - Все, о чем молю.wav

     Длина предзазора  0:00:01.77

     Пиковый уровень 88.9 %
     Скорость извлечения 1.7 X
     Качество трека 100.0 %
     CRC теста 199F378B
     CRC копии 199F378B
     Трек не обнаружен в базе AccurateRip
     Копирование... OK

Трек  9

     Имя файла E:\_VIDEO\_seriaЛЫ_\!!!muz\Призрак Оперы (Русская версия) - 2015\09 И. Ожогин, Т. Котова, Е. Зайцев - Все, о чем молю (реприза).wav

     Длина предзазора  0:00:01.77

     Пиковый уровень 92.5 %
     Скорость извлечения 1.6 X
     Качество трека 100.0 %
     CRC теста 41A031EE
     CRC копии 41A031EE
     Трек не обнаружен в базе AccurateRip
     Копирование... OK

Трек 10

     Имя файла E:\_VIDEO\_seriaЛЫ_\!!!muz\Призрак Оперы (Русская версия) - 2015\10 Various Artists - Антракт.wav

     Длина предзазора  0:00:01.77

     Пиковый уровень 92.1 %
     Скорость извлечения 1.6 X
     Качество трека 100.0 %
     CRC теста 1249ED61
     CRC копии 1249ED61
     Трек не обнаружен в базе AccurateRip
     Копирование... OK

Трек 11

     Имя файла E:\_VIDEO\_seriaЛЫ_\!!!muz\Призрак Оперы (Русская версия) - 2015\11 Артисты ансамбля - Маскарад.wav

     Длина предзазора  0:00:01.77

     Пиковый уровень 99.8 %
     Скорость извлечения 1.9 X
     Качество трека 100.0 %
     CRC теста F23FB542
     CRC копии F23FB542
     Трек не обнаружен в базе AccurateRip
     Копирование... OK

Трек 12

     Имя файла E:\_VIDEO\_seriaЛЫ_\!!!muz\Призрак Оперы (Русская версия) - 2015\12 Е. Бахтиярова - Я хочу, чтоб вновь ты был со мной.wav

     Длина предзазора  0:00:01.77

     Пиковый уровень 93.1 %
     Скорость извлечения 1.8 X
     Качество трека 100.0 %
     CRC теста 6B5E4A50
     CRC копии 6B5E4A50
     Трек не обнаружен в базе AccurateRip
     Копирование... OK

Трек 13

     Имя файла E:\_VIDEO\_seriaЛЫ_\!!!muz\Призрак Оперы (Русская версия) - 2015\13 Т. Котова, Д. Ермак - Мы пересекли черту.wav

     Длина предзазора  0:00:01.77

     Пиковый уровень 94.7 %
     Скорость извлечения 2.0 X
     Качество трека 100.0 %
     CRC теста CB0A6D81
     CRC копии CB0A6D81
     Трек не обнаружен в базе AccurateRip
     Копирование... OK

Трек 14

     Имя файла E:\_VIDEO\_seriaЛЫ_\!!!muz\Призрак Оперы (Русская версия) - 2015\14 Т. Котова, Д. Ермак, Е. Зайцев, артисты ансамбля - В логове Призрака.wav

     Длина предзазора  0:00:01.77

     Пиковый уровень 99.9 %
     Скорость извлечения 2.3 X
     Качество трека 100.0 %
     CRC теста ECB8182D
     CRC копии ECB8182D
     Трек не обнаружен в базе AccurateRip
     Копирование... OK

Трек 15

     Имя файла E:\_VIDEO\_seriaЛЫ_\!!!muz\Призрак Оперы (Русская версия) - 2015\15 Е. Бахтиярова, Е. Зайцев - Думай обо мне (бонус).wav

     Длина предзазора  0:00:01.77

     Пиковый уровень 92.2 %
     Скорость извлечения 2.2 X
     Качество трека 100.0 %
     CRC теста F0BEB93B
     CRC копии F0BEB93B
     Трек не обнаружен в базе AccurateRip
     Копирование... OK

Трек 16

     Имя файла E:\_VIDEO\_seriaЛЫ_\!!!muz\Призрак Оперы (Русская версия) - 2015\16 Артисты ансамбля - Примадонна (бонус).wav

     Длина предзазора  0:00:01.77

     Пиковый уровень 95.8 %
     Скорость извлечения 2.2 X
     Качество трека 100.0 %
     CRC теста 00ED2896
     CRC копии 00ED2896
     Трек не обнаружен в базе AccurateRip
     Копирование... OK

Трек 17

     Имя файла E:\_VIDEO\_seriaЛЫ_\!!!muz\Призрак Оперы (Русская версия) - 2015\17 Д. Ермак - Музыка ночи (бонус).wav

     Длина предзазора  0:00:01.77

     Пиковый уровень 90.3 %
     Скорость извлечения 2.4 X
     Качество трека 100.0 %
     CRC теста 4CB7CF49
     CRC копии 4CB7CF49
     Трек не обнаружен в базе AccurateRip
     Копирование... OK

Трек 18

     Имя файла E:\_VIDEO\_seriaЛЫ_\!!!muz\Призрак Оперы (Русская версия) - 2015\18 Т. Котова, И. Ожогин, артисты ансамбля - Призрак Оперы (бонус).wav

     Длина предзазора  0:00:01.77

     Пиковый уровень 94.6 %
     Скорость извлечения 2.4 X
     Качество трека 100.0 %
     CRC теста 9C004817
     CRC копии 9C004817
     Трек не обнаружен в базе AccurateRip
     Копирование... OK

Ни одного трека нет в базе AccurateRip

Ошибок не произошло

Конец отчёта

Код:

REM GENRE Musical
REM DATE 2015
REM DISCID F9112A12
REM COMMENT "ExactAudioCopy v1.0b3"
PERFORMER "Various Artists"
TITLE "Призрак Оперы"
FILE "01 Various Artists - Увертюра.wav" WAVE
  TRACK 01 AUDIO
    TITLE "Увертюра"
    PERFORMER "Various Artists"
    INDEX 01 00:00:00
  TRACK 02 AUDIO
    TITLE "Думай обо мне"
    PERFORMER "Т. Котова, Е. Зайцев"
    INDEX 00 02:11:64
FILE "02 Т. Котова, Е. Зайцев - Думай обо мне.wav" WAVE
    INDEX 01 00:00:00
  TRACK 03 AUDIO
    TITLE "Ангел музыки"
    PERFORMER "И.Ожогин, В. Мигалина, Е. Бахтиярова"
    INDEX 00 03:24:60
FILE "03 И.Ожогин, В. Мигалина, Е. Бахтиярова - Ангел музыки.wav" WAVE
    INDEX 01 00:00:00
  TRACK 04 AUDIO
    TITLE "Зеркало"
    PERFORMER "Т. Котова, И. Ожогин"
    INDEX 00 02:24:12
FILE "04 Т. Котова, И. Ожогин - Зеркало.wav" WAVE
    INDEX 01 00:00:00
  TRACK 05 AUDIO
    TITLE "Призрак Оперы"
    PERFORMER "Е. Бахтиярова, Д. Ермак, артисты ансамбля"
    INDEX 00 01:56:14
FILE "05 Е. Бахтиярова, Д. Ермак, артисты ансамбля - Призрак Оперы.wav" WAVE
    INDEX 01 00:00:00
  TRACK 06 AUDIO
    TITLE "Музыка ночи"
    PERFORMER "И. Ожогин"
    INDEX 00 04:20:22
FILE "06 И. Ожогин - Музыка ночи.wav" WAVE
    INDEX 01 00:00:00
  TRACK 07 AUDIO
    TITLE "Примадонна"
    PERFORMER "Артисты ансамбля"
    INDEX 00 04:56:51
FILE "07 Артисты ансамбля - Примадонна.wav" WAVE
    INDEX 01 00:00:00
  TRACK 08 AUDIO
    TITLE "Все, о чем молю"
    PERFORMER "Т. Котова, Е. Зайцев"
    INDEX 00 03:28:29
FILE "08 Т. Котова, Е. Зайцев - Все, о чем молю.wav" WAVE
    INDEX 01 00:00:00
  TRACK 09 AUDIO
    TITLE "Все, о чем молю (реприза)"
    PERFORMER "И. Ожогин, Т. Котова, Е. Зайцев"
    INDEX 00 04:12:02
FILE "09 И. Ожогин, Т. Котова, Е. Зайцев - Все, о чем молю (реприза).wav" WAVE
    INDEX 01 00:00:00
  TRACK 10 AUDIO
    TITLE "Антракт"
    PERFORMER "Various Artists"
    INDEX 00 02:20:32
FILE "10 Various Artists - Антракт.wav" WAVE
    INDEX 01 00:00:00
  TRACK 11 AUDIO
    TITLE "Маскарад"
    PERFORMER "Артисты ансамбля"
    INDEX 00 02:12:16
FILE "11 Артисты ансамбля - Маскарад.wav" WAVE
    INDEX 01 00:00:00
  TRACK 12 AUDIO
    TITLE "Я хочу, чтоб вновь ты был со мной"
    PERFORMER "Е. Бахтиярова"
    INDEX 00 05:13:35
FILE "12 Е. Бахтиярова - Я хочу, чтоб вновь ты был со мной.wav" WAVE
    INDEX 01 00:00:00
  TRACK 13 AUDIO
    TITLE "Мы пересекли черту"
    PERFORMER "Т. Котова, Д. Ермак"
    INDEX 00 03:12:01
FILE "13 Т. Котова, Д. Ермак - Мы пересекли черту.wav" WAVE
    INDEX 01 00:00:00
  TRACK 14 AUDIO
    TITLE "В логове Призрака"
    PERFORMER "Т. Котова, Д. Ермак, Е. Зайцев, артисты ансамбля"
    INDEX 00 04:27:28
FILE "14 Т. Котова, Д. Ермак, Е. Зайцев, артисты ансамбля - В логове Призрака.wav" WAVE
    INDEX 01 00:00:00
  TRACK 15 AUDIO
    TITLE "Думай обо мне (бонус)"
    PERFORMER "Е. Бахтиярова, Е. Зайцев"
    INDEX 00 12:09:53
FILE "15 Е. Бахтиярова, Е. Зайцев - Думай обо мне (бонус).wav" WAVE
    INDEX 01 00:00:00
  TRACK 16 AUDIO
    TITLE "Примадонна (бонус)"
    PERFORMER "Артисты ансамбля"
    INDEX 00 03:27:12
FILE "16 Артисты ансамбля - Примадонна (бонус).wav" WAVE
    INDEX 01 00:00:00
  TRACK 17 AUDIO
    TITLE "Музыка ночи (бонус)"
    PERFORMER "Д. Ермак"
    INDEX 00 03:28:59
FILE "17 Д. Ермак - Музыка ночи (бонус).wav" WAVE
    INDEX 01 00:00:00
  TRACK 18 AUDIO
    TITLE "Призрак Оперы (бонус)"
    PERFORMER "Т. Котова, И. Ожогин, артисты ансамбля"
    INDEX 00 04:56:70
FILE "18 Т. Котова, И. Ожогин, артисты ансамбля - Призрак Оперы (бонус).wav" WAVE
    INDEX 01 00:00:00

Этот торрент недоступен для скачивания без регистрации, однако доступен по публичной magnet-ссылке (источники с публичных трекеров). Перед использованием ссылки прочтите, пожалуйста Пользовательское соглашение, а также как можно дольше оставайтесь на раздаче! Для того, чтобы скачать сам торрент-файл (который видит больше источников), а также для того, чтобы поблагодарить релизера, вам необходимо зарегистрироваться. Если регистрироваться лень - вы можете также попробовать скачать релиз по нашим партнерским ссылкам ниже. Кроме того, зарегистрированным пользователям не показывается всплывающая реклама при скачивании.

[underverse.me].t96529.torrent
Трекер: Зарегистрирован   [ 15.02.2018 20:09 ]  

Статус: проверено (by Бишеп at 15.02.2018 20:09)
Поблагодарили: пока никто не поблагодарил...
Тип торрента: публичный - доступные источники с открытых трекеров: 
Размер: 549 MB (занимает 0,12 DVDR, для записи нужно 1 болванка DVDR/RW)
 
 

Яндекс.Метрика powered by Sphinx


В Н И М А Н И Е
Сайт не распространяет и не хранит электронные версии произведений, а лишь бесплатно и без коммерческой выгоды (не требуя взамен платы,
SMS и т.д.) предоставляет доступ к создаваемому пользователями каталогу ссылок на торрент-файлы, которые содержат только списки хеш-сумм.
Убедительная просьба с жалобами обращаться напрямую к пользователю, разместившему торрент файл.

Вверх