Loading...
Error

Смерть Людовика XIV / La mort de Louis XIV (Альберт Серра) [2016 г., драма, биография, история, BDRip 720p] MVO (Line)

Статистика раздачи
Размер:  5,31 GB   |    Зарегистрирован:  6 месяцев   |    Скачан:  7 раз

Полного источника не было: 5 месяцев 3 дня

Сидов:  0  |  0 KB/s  ]   Личеров:  0  |  0 KB/s  ]

* - сиды/пиры с внешних источников

   
 
Автор Сообщение

makkol Пол:Муж

13-Фев-2018 13:02

Смерть Людовика XIV / La mort de Louis XIV


Год выпуска: 2016
Жанр: драма, биография, история
Производство: Франция , Испания , Португалия [Capricci Films, Rosa Filmes, Andergraun Films]
Режиссер: Альберт Серра
В ролях: Жан-Пьер Лео, Патрик д Асумсао, Марк Сузини, Бернард Белин, Ирен Сильваньи, Виченс Алтай, Жак Хенрик, Ален Лажоини, Оливье Кадиот, Филипп Креспо
Сюжет фильма:
Король-Солнце Людовик XIV очень любил обильно поесть и всю жизнь страдал от различных болезней. Их история велась в течение 64 лет. Врачи скорее залечивали, чем лечили короля - они поддерживали его жизнь, чтобы получить за свою работу больше денег. Один историк медицины, оценивая лечебную практику королевских врачей Валло, д`Акена и Фагона, писал: «Несомненно, нужно было иметь железное здоровье, чтобы выдержать это лечение коновалов».

  • Мировая премьера: 19 мая 2016


Качество видео: BDRip 720p

Продолжительность: 01:57:05
Формат: MKV
Видео: MPEG-4 AVC, 1280x536 (2.40:1), 23.976 fps, 6037 kbps
Аудио: русский, профессиональный многоголосый закадровый (официальный звук), AC3 2.0, 48 kHz, 448 kbps

Код:

Формат : Matroska
Версия формата : Version 2
Размер файла : 5,31 Гбайт
Продолжительность : 1 ч. 57 м.
Режим общего битрейта : Переменный
Общий поток : 6487 Кбит/сек
Дата кодирования : UTC 2018-02-12 13:47:26
Программа кодирования : mkvmerge v8.3.0 ('Over the Horizon') 64bit
Библиотека кодирования : libebml v1.3.1 + libmatroska v1.4.2

Видео
Идентификатор : 1
Формат : AVC
Формат/Информация : Advanced Video Codec
Профиль формата : High@L4.1
Параметр CABAC формата : Да
Параметр ReFrames формата : 4 кадра
Идентификатор кодека : V_MPEG4/ISO/AVC
Продолжительность : 1 ч. 57 м.
Вид битрейта : Переменный
Битрейт : 6037 Кбит/сек
Максимальный битрейт : 6500 Кбит/сек
Ширина : 1280 пикселей
Высота : 536 пикселей
Соотношение сторон : 2,40:1
Режим частоты кадров : Постоянный
Частота кадров : 23,976 (24000/1001) кадра/сек
Стандарт вещания : Component
Цветовое пространство : YUV
Субдискретизация насыщенности : 4:2:0
Битовая глубина : 8 бит
Тип развёртки : Прогрессивная
Бит/(Пиксели*Кадры) : 0.359
Размер потока : 4,83 Гбайт (91%)
Default : Да
Forced : Нет
Цветовой диапазон : Limited
Основные цвета : BT.709
Характеристики трансфера : BT.709
Коэффициенты матрицы : BT.709

Аудио
Идентификатор : 2
Формат : AC-3
Формат/Информация : Audio Coding 3
Расширение режима : CM (complete main)
Параметр Endianness формата : Big
Идентификатор кодека : A_AC3
Продолжительность : 1 ч. 57 м.
Вид битрейта : Постоянный
Битрейт : 448 Кбит/сек
Каналы : 2 канала
Расположение каналов : Front: L R
Частота : 48,0 КГц
Частота кадров : 31,250 кадров/сек (1536 spf)
Метод сжатия : С потерями
Размер потока : 375 Мбайт (7%)
Default : Да
Forced : Нет


picpicpic
Для увеличения картинки щелкните мышкой по превью

Этот торрент недоступен для скачивания без регистрации, однако доступен по публичной magnet-ссылке (источники с публичных трекеров). Перед использованием ссылки прочтите, пожалуйста Пользовательское соглашение, а также как можно дольше оставайтесь на раздаче! Для того, чтобы скачать сам торрент-файл (который видит больше источников), а также для того, чтобы поблагодарить релизера, вам необходимо зарегистрироваться. Если регистрироваться лень - вы можете также попробовать скачать релиз по нашим партнерским ссылкам ниже. Кроме того, зарегистрированным пользователям не показывается всплывающая реклама при скачивании.

[underverse.me].t96363.torrent
Трекер: Зарегистрирован   [ 13.02.2018 13:02 ]  

Статус: T временная (by makkol at 13.02.2018 13:02)
Поблагодарили: 1 человек
Тип торрента: публичный - доступные источники с открытых трекеров: 
Размер: 5,31 GB (занимает 1,21 DVDR, для записи нужно 2 болванки DVDR/RW)
 
 
Похожие темы
Форум Тема Автор Торрент Отв. Посл. сооб.
T Зарубежное кино [DVDRip, Low-Res HDRip, и т.д.] Смерть Людовика XIV / La mort de Louis XIV (Альберт Серра) [2016 г., драма, биография, история, HDRip] MVO (Line) makkol
3 | 0

0 | 429

9

13.02.2018 12:54

Паукан Пол:Муж

13-Фев-2018 13:13

makkol писал(а):

«Несомненно, нужно было иметь железное здоровье, чтобы выдержать это лечение коновалов»
А сейчас разве что-то изменилось? :)

Яндекс.Метрика powered by Sphinx


В Н И М А Н И Е
Сайт не распространяет и не хранит электронные версии произведений, а лишь бесплатно и без коммерческой выгоды (не требуя взамен платы,
SMS и т.д.) предоставляет доступ к создаваемому пользователями каталогу ссылок на торрент-файлы, которые содержат только списки хеш-сумм.
Убедительная просьба с жалобами обращаться напрямую к пользователю, разместившему торрент файл.

Вверх