Loading...
Error

Аркадий Северный. Человек, которого не было (Максим Катушкин) [2008 г., документальный, биография, шансон, SatRip-TS]

Статистика раздачи
Размер:  851 MB   |    Зарегистрирован:  9 месяцев   |    Скачан:  10 раз
Сидов:  1  |  0 KB/s  ]   Личеров:  0  |  0 KB/s  ]

* - сиды/пиры с внешних источников

   
 
Автор Сообщение

ARI71 Пол:Муж

13-Фев-2018 12:06

Аркадий Северный. Человек, которого не было


Год выпуска: 2008
Жанр: документальный, биография, шансон
Страна: Россия Пятый канал
Режиссер: Максим Катушкин
В ролях: Валентина Звездина, Наталья Соколова (Звездина), Рудольф Фукс, Сергей Соколов, Александр Розенбаум.
Сюжет фильма:
Этот человек, песни которого разошлись на пословицы и поговорки, не записывался на радио, не показывался по телевизору. Его голос знали все, но мало кто видел его. О Северном складывали невероятные легенды: его путали с Высоцким, эмигрантами, отождествляли с персонажами песен, которые он исполнял - уголовниками, белогвардейцами, цыганами. В 70-е годы кассеты с песнями Аркадия Северного слушал весь Советский Союз. Аркадий Северный - творческий псевдоним Аркадия Звездина, простого советского инженера, ставшего знаменитым на весь Советский Союз благодаря подпольной системе «магнитиздата». Это был сверхудачный «проект» талантливого певца и не менее талантливых «продюсеров». Сейчас годы застоя часто вспоминают с ностальгическим умилением. Но для творческого человека эти времена были убийственны. Иногда - в прямом смысле этого слова. Северный мог бы стать советским Фрэнком Синатрой, но был обречен существовать в подполье и умереть в нищете. Всё, что осталось - 150 часов магнитофонных плёнок с его песнями. Документальный фильм Пятого канала - «Аркадий Северный. Человек, которого не было» - первое подробное описание жизни и творчества «короля блатной песни».

Арка́дий Се́верный (настоящее имя — Арка́дий Дми́триевич Зве́здин; 12 марта 1939, Иваново — 12 апреля 1980, Ленинград) — исполнитель песен современного городского фольклора, авторских неподцензурных песен, романсов и стилизаций. Обладал оригинальным тембром голоса и экспрессивной артистической подачей песни. Мог ярко обыграть песню в любой стилистике, от романсовой до джазовой.
Качество видео: SatRip-TS

Продолжительность: 00:45:54
Формат: TS
Видео: MPEG 2, 704x576@768x576, 2270 kbps
Аудио: русский, MP2 2.0, 192 kbps

Доп. информация: Размер кадра - анаморфный - (768x576)

Код:

Общее
Идентификатор : 16 (0x10)
Полное имя : D:\ASeverny.ts
Формат : MPEG-TS
Размер файла : 851 Мбайт
Продолжительность : 45 м. 54 с.
Режим общего битрейта : Переменный
Общий поток : 2592 Кбит/сек

Видео
Идентификатор : 326 (0x146)
Идентификатор меню : 3 (0x3)
Формат : MPEG Video
Версия формата : Version 2
Профиль формата : Main@Main
Настройки формата : CustomMatrix / BVOP
Параметр BVOP формата : Да
Параметр матрицы формата : Выборочная
Параметр GOP формата : M=3, N=24
Идентификатор кодека : 2
Продолжительность : 45 м. 54 с.
Вид битрейта : Переменный
Битрейт : 2270 Кбит/сек
Максимальный битрейт : 15,0 Мбит/сек
Ширина : 704 пикселя
Высота : 576 пикселей
Соотношение сторон : 4:3
Частота кадров : 25,000 кадров/сек
Стандарт вещания : PAL
Цветовое пространство : YUV
Субдискретизация насыщенности : 4:2:0
Битовая глубина : 8 бит
Метод сжатия : С потерями
Бит/(Пиксели*Кадры) : 0.224
Временной код первого кадра : 00:00:00:00
Оригинал временного кода : Group of pictures header
GOP, открыто/закрыто : Открыто
GOP, открыто/закрыто на первом кадре : Закрыто
Размер потока : 745 Мбайт (88%)
Библиотека кодирования : (c) 1998-2008 Womble Multimedia, Inc. / MPEG Video Wizard (12/2008) / Mar 31 2009

Аудио
Идентификатор : 406 (0x196)
Идентификатор меню : 3 (0x3)
Формат : MPEG Audio
Версия формата : Version 1
Профиль формата : Layer 2
Идентификатор кодека : 3
Продолжительность : 45 м. 54 с.
Вид битрейта : Постоянный
Битрейт : 192 Кбит/сек
Каналы : 2 канала
Частота : 48,0 КГц
Частота кадров : 41,667 кадра/сек (1152 SPF)
Метод сжатия : С потерями
Задержка видео : 40 мс.
Размер потока : 63,0 Мбайт (7%)
picpicpicpicpic
Для увеличения картинки щелкните мышкой по превью

Этот торрент недоступен для скачивания без регистрации, однако доступен по публичной magnet-ссылке (источники с публичных трекеров). Перед использованием ссылки прочтите, пожалуйста Пользовательское соглашение, а также как можно дольше оставайтесь на раздаче! Для того, чтобы скачать сам торрент-файл (который видит больше источников), а также для того, чтобы поблагодарить релизера, вам необходимо зарегистрироваться. Если регистрироваться лень - вы можете также попробовать скачать релиз по нашим партнерским ссылкам ниже. Кроме того, зарегистрированным пользователям не показывается всплывающая реклама при скачивании.

[underverse.me].t96361.torrent
Трекер: Зарегистрирован   [ 13.02.2018 12:06 ]  

Статус: проверено (by ARI71 at 13.02.2018 12:07)
Поблагодарили: пока никто не поблагодарил...
Тип торрента: публичный - доступные источники с открытых трекеров: 
Размер: 851 MB (занимает 0,19 DVDR, для записи нужно 1 болванка DVDR/RW)
 
 
Похожие темы
Форум Тема Автор Торрент Отв. Посл. сооб.
Личности Аркадий Северный. Он был почти что знаменит (Дмитрий Завельгельский) [1997 г., документальный, биография, шансон, TVRip] ARI71
1 | 0

1 | 989

7

13.09.2018 08:12


Яндекс.Метрика powered by Sphinx


В Н И М А Н И Е
Сайт не распространяет и не хранит электронные версии произведений, а лишь бесплатно и без коммерческой выгоды (не требуя взамен платы,
SMS и т.д.) предоставляет доступ к создаваемому пользователями каталогу ссылок на торрент-файлы, которые содержат только списки хеш-сумм.
Убедительная просьба с жалобами обращаться напрямую к пользователю, разместившему торрент файл.

Вверх