Loading...
Error

(Rock) Крематорий - Люди-Невидимки (2016) [FLAC (Image+.Cue), Lossless]

Статистика раздачи
Размер:  439 MB   |    Зарегистрирован:  9 месяцев   |    Скачан:  10 раз

Полного источника не было: 19 часов

Сидов:  0  |  0 KB/s  ]   Личеров:  0  |  0 KB/s  ]

* - сиды/пиры с внешних источников

   
 
Автор Сообщение

Бишеп Пол:Муж

13-Фев-2018 11:50

Крематорий - Люди-Невидимки

Жанр: Rock
Год выпуска: 2016
Источник: CD
Производитель диска: Navigator Records - NR 0416 CDp
Аудиокодек: FLAC
Тип рипа: Image+.CUE
Битрейт аудио: lossless
Продолжительность: 00:39:20


Треклист:
01. Intro: Ave Caesar
02. Супермаркет
03. Гудвин
04. Брунхильда
05. Текила Бум
06. Ричард III
07. Света
08. Верёвка И Мыло
09. Бенито Хуарес
10. Жизнь
11. Perpetuum Mobile, Pt. I
12. Perpetuum Mobile, Pt. II
13. Epilogue: Люди-Невидимки

Код:

Exact Audio Copy V1.0 beta 3 from 29. August 2011

Отчёт EAC об извлечении, выполненном 30. августа 2016, 23:15

Крематорий / ЛЮДИ-НЕВИДИМКИ

Дисковод: PIONEER DVD-RW  DVR-221L   Adapter: 3  ID: 0

Режим чтения                 : Достоверность
Использование точного потока : Да
Отключение кэша аудио        : Да
Использование указателей C2  : Нет

Коррекция смещения при чтении                     : 6
Способность читать области Lead-in и Lead-out     : Нет
Заполнение пропущенных сэмплов тишиной            : Да
Удаление блоков с тишиной в начале и конце        : Нет
При вычислениях CRC использовались нулевые сэмплы : Да
Интерфейс                                         : Встроенный Win32-интерфейс для Win NT/2000

Выходной формат          : Пользовательский кодировщик
Выбранный битрейт        : 768 kBit/s
Качество                 : Высокий
Добавление ID3-тега      : Нет
Утилита сжатия           : C:\Program Files (x86)\Exact Audio Copy\FLAC\FLAC.EXE
Дополнительные параметры : -6 -V -T "ARTIST=%artist%" -T "TITLE=%title%" -T "ALBUM=%albumtitle%" -T "DATE=%year%" -T "TRACKNUMBER=%tracknr%" -T "GENRE=%genre%" -T "COMMENT=%comment%" -T "BAND=%albuminterpret%" -T "ALBUMARTIST=%albuminterpret%" -T "COMPOSER=%composer%" %haslyrics%--tag-from-file=LYRICS="%lyricsfile%"%haslyrics% -T "DISCNUMBER=%cdnumber%" -T "TOTALDISCS=%totalcds%" -T "TOTALTRACKS=%numtracks%" %hascover%--picture="%coverfile%"%hascover% %source% -o %dest%

TOC извлечённого CD

     Трек |   Старт  | Длительность | Начальный сектор | Конечный сектор
    ---------------------------------------------------------------------
       1  |  0:00.00 |    1:35.04   |           0      |       7128     
       2  |  1:35.04 |    3:45.72   |        7129      |      24075     
       3  |  5:21.01 |    3:51.19   |       24076      |      41419     
       4  |  9:12.20 |    3:48.13   |       41420      |      58532     
       5  | 13:00.33 |    3:27.00   |       58533      |      74057     
       6  | 16:27.33 |    3:16.23   |       74058      |      88780     
       7  | 19:43.56 |    3:08.45   |       88781      |     102925     
       8  | 22:52.26 |    3:34.25   |      102926      |     119000     
       9  | 26:26.51 |    3:12.42   |      119001      |     133442     
      10  | 29:39.18 |    3:18.34   |      133443      |     148326     
      11  | 32:57.52 |    1:09.39   |      148327      |     153540     
      12  | 34:07.16 |    2:49.44   |      153541      |     166259     
      13  | 36:56.60 |    2:23.34   |      166260      |     177018     

Характеристики диапазона извлечения и сообщения об ошибках

Выбранный диапазон

     Имя файла E:\торрент\Крематорий-ЛЮДИ-НЕВИДИМКИ(2016)\Крематорий - ЛЮДИ-НЕВИДИМКИ.wav

     Пиковый уровень 96.6 %
     Скорость извлечения 4.4 X
     Качество диапазона 100.0 %
     CRC теста 4F42AD22
     CRC копии 4F42AD22
     Копирование... OK

Ошибок не произошло

 
AccurateRip: сводка
 
Трек  1  отсутствует в базе данных
Трек  2  отсутствует в базе данных
Трек  3  отсутствует в базе данных
Трек  4  отсутствует в базе данных
Трек  5  отсутствует в базе данных
Трек  6  отсутствует в базе данных
Трек  7  отсутствует в базе данных
Трек  8  отсутствует в базе данных
Трек  9  отсутствует в базе данных
Трек 10  отсутствует в базе данных
Трек 11  отсутствует в базе данных
Трек 12  отсутствует в базе данных
Трек 13  отсутствует в базе данных
 
Ни одного трека нет в базе AccurateRip

Конец отчёта

Код:

REM GENRE Rock
REM DATE 2016
REM DISCID CE09380D
REM COMMENT "ExactAudioCopy v1.0b3"
PERFORMER "Крематорий"
TITLE "ЛЮДИ-НЕВИДИМКИ"
FILE "Крематорий - ЛЮДИ-НЕВИДИМКИ.flac" WAVE
  TRACK 01 AUDIO
    TITLE "INTRO: AVE CAESAR"
    PERFORMER "Крематорий"
    INDEX 01 00:00:00
  TRACK 02 AUDIO
    TITLE "СУПЕРМАРКЕТ"
    PERFORMER "Крематорий"
    INDEX 00 01:33:04
    INDEX 01 01:35:04
  TRACK 03 AUDIO
    TITLE "ГУДВИН"
    PERFORMER "Крематорий"
    INDEX 00 05:19:01
    INDEX 01 05:21:01
  TRACK 04 AUDIO
    TITLE "БРУНХИЛЬДА"
    PERFORMER "Крематорий"
    INDEX 00 09:10:20
    INDEX 01 09:12:20
    INDEX 02 09:19:57
    INDEX 03 10:25:51
    INDEX 04 11:03:20
    INDEX 05 12:01:33
  TRACK 05 AUDIO
    TITLE "ТЕКИЛА БУМ"
    PERFORMER "Крематорий"
    INDEX 00 12:58:33
    INDEX 01 13:00:33
  TRACK 06 AUDIO
    TITLE "РИЧАРД  III"
    PERFORMER "Крематорий"
    INDEX 00 16:25:33
    INDEX 01 16:27:33
  TRACK 07 AUDIO
    TITLE "СВЕТА"
    PERFORMER "Крематорий"
    INDEX 00 19:41:56
    INDEX 01 19:43:56
  TRACK 08 AUDIO
    TITLE "ВЕРЁВКА И МЫЛО"
    PERFORMER "Крематорий"
    INDEX 00 22:50:26
    INDEX 01 22:52:26
  TRACK 09 AUDIO
    TITLE "БЕНИТО ХУАРЕС"
    PERFORMER "Крематорий"
    INDEX 00 26:24:51
    INDEX 01 26:26:51
  TRACK 10 AUDIO
    TITLE "ЖИЗНЬ"
    PERFORMER "Крематорий"
    INDEX 00 29:37:18
    INDEX 01 29:39:18
  TRACK 11 AUDIO
    TITLE "PERPETUUM MOBILE, PT. I"
    PERFORMER "Крематорий"
    INDEX 00 32:55:52
    INDEX 01 32:57:52
  TRACK 12 AUDIO
    TITLE "PERPETUUM MOBILE, PT. II"
    PERFORMER "Крематорий"
    INDEX 01 34:07:16
  TRACK 13 AUDIO
    TITLE "EPILOGUE: ЛЮДИ-НЕВИДИМКИ"
    PERFORMER "Крематорий"
    INDEX 00 36:54:60
    INDEX 01 36:56:60

Discogs

Этот торрент недоступен для скачивания без регистрации, однако доступен по публичной magnet-ссылке (источники с публичных трекеров). Перед использованием ссылки прочтите, пожалуйста Пользовательское соглашение, а также как можно дольше оставайтесь на раздаче! Для того, чтобы скачать сам торрент-файл (который видит больше источников), а также для того, чтобы поблагодарить релизера, вам необходимо зарегистрироваться. Если регистрироваться лень - вы можете также попробовать скачать релиз по нашим партнерским ссылкам ниже. Кроме того, зарегистрированным пользователям не показывается всплывающая реклама при скачивании.

[underverse.me].t96358.torrent
Трекер: Зарегистрирован   [ 13.02.2018 11:50 ]  

Статус: проверено (by Бишеп at 13.02.2018 11:50)
Поблагодарили: пока никто не поблагодарил...
Тип торрента: публичный - доступные источники с открытых трекеров: 
Размер: 439 MB (занимает 0,1 DVDR, для записи нужно 1 болванка DVDR/RW)
 
 
Похожие темы
Форум Тема Автор Торрент Отв. Посл. сооб.
Отечественный Hard, Progressive, Melodic, AOR (Lossless) (Rock) Крематорий - Живые и Мёртвые (1998) [FLAC (Tracks+.CUE), Lossless] Бишеп
1 | 0

0 | 1245

4

30.03.2012 05:15

Отечественный Hard, Progressive, Melodic, AOR (Lossless) (Rock) Крематорий - Зомби (1998) [FLAC (Tracks+.CUE), Lossless] Бишеп
1 | 0

0 | 1404

5

03.04.2012 09:59

Отечественный Hard, Progressive, Melodic, AOR (Lossless) (Rock) Крематорий - Двойной Альбом (1998) [FLAC (Image+.CUE), Lossless] Бишеп
1 | 0

0 | 1395

11

18.11.2012 20:01


Яндекс.Метрика powered by Sphinx


В Н И М А Н И Е
Сайт не распространяет и не хранит электронные версии произведений, а лишь бесплатно и без коммерческой выгоды (не требуя взамен платы,
SMS и т.д.) предоставляет доступ к создаваемому пользователями каталогу ссылок на торрент-файлы, которые содержат только списки хеш-сумм.
Убедительная просьба с жалобами обращаться напрямую к пользователю, разместившему торрент файл.

Вверх