Loading...
Error

Comedy Баттл. Новый сезон / Комеди Клаб / Comedy Club (2018.01.26) [2018 г., юмор, SATRip] (выпуск 1)

Статистика раздачи
Размер:  656 MB   |    Зарегистрирован:  4 месяца 26 дней   |    Скачан:  12 раз

Полного источника не было: 8 дней

Сидов:  0  |  0 KB/s  ]   Личеров:  0  |  0 KB/s  ]

* - сиды/пиры с внешних источников

   
 
Автор Сообщение

Паукан Пол:Муж

26-Янв-2018 15:47

Comedy Баттл. Новый сезон / Комеди Клаб / Comedy Club (2018.01.26) SATRip (выпуск 1)

Телекомпания: ТНТ
Жанр: Юмор

Ведущий: Павел Воля

Описание:
Свершилось! После почти годичной паузы на ТНТ возвращается одно из самых популярных юмористических шоу на российском телевидении.
В последние пару лет сложилось впечатление, что стендап навсегда вытеснил со сцены миниатюры. Это не так. В новом сезоне «Comedy Баттл» намечается противостояние двух основных юмористических жанров.

Продолжительность: ~ 00:47:20
Качество видео: SATRip
Субтитры: Отсутствуют

Видео: Xvid, 720x400 (16:9), ~1800 Kbps
Аудио: MP3, 2 ch, 128 Kbps
[pre]
Общее
Полное имя : F:\Comedy Баттл.avi
Формат : AVI
Формат/Информация : Audio Video Interleave
Размер файла : 656 Мбайт
Продолжительность : 47 м. 19 с.
Общий поток : 1937 Кбит/сек
Программа кодирования : VirtualDubMod 1.5.10.3 | www.virtualdub-fr.org || (build 2550/release)
Библиотека кодирования : VirtualDubMod build 2550/release

Видео
Идентификатор : 0
Формат : MPEG-4 Visual
Профиль формата : Advanced Simple@L5
Настройки формата : BVOP2
Параметр BVOP формата : 2
Параметр QPel формата : Нет
Параметр GMC формата : Без точки перехода
Параметр матрицы формата : Default (H.263)
Идентификатор кодека : XVID
Идентификатор кодека/Подсказка : XviD
Продолжительность : 47 м. 19 с.
Битрейт : 1800 Кбит/сек
Ширина : 720 пикселей
Высота : 400 пикселей
Соотношение сторон : 16:9
Частота кадров : 25,000 кадров/сек
Цветовое пространство : YUV
Субдискретизация насыщенности : 4:2:0
Битовая глубина : 8 бит
Тип развёртки : Прогрессивная
Метод сжатия : С потерями
Бит/(Пиксели*Кадры) : 0.250
Размер потока : 609 Мбайт (93%)
Библиотека кодирования : XviD 1.2.1 (UTC 2008-12-04)

Аудио
Идентификатор : 1
Формат : MPEG Audio
Версия формата : Version 1
Профиль формата : Layer 3
Настройки формата : Joint stereo / MS Stereo
Идентификатор кодека : 55
Идентификатор кодека/Подсказка : MP3
Продолжительность : 47 м. 19 с.
Вид битрейта : Постоянный
Битрейт : 128 Кбит/сек
Каналы : 2 канала
Частота : 48,0 КГц
Частота кадров : 41,667 кадра/сек (1152 SPF)
Метод сжатия : С потерями
Размер потока : 43,3 Мбайт (7%)
Выравнивание : Соединение по промежуткам
Продолжительность промежутка : 40 мс. (1,00 видеокадр)
Время предзагрузки промежутка : 504 мс.
Библиотека кодирования : LAME3.99r
Настройки программы : -m j -V 4 -q 9 -lowpass 17 -b 128
[/pre]

Скриншоты:
pic pic pic pic

Этот торрент недоступен для скачивания без регистрации, однако доступен по публичной magnet-ссылке (источники с публичных трекеров). Перед использованием ссылки прочтите, пожалуйста Пользовательское соглашение, а также как можно дольше оставайтесь на раздаче! Для того, чтобы скачать сам торрент-файл (который видит больше источников), а также для того, чтобы поблагодарить релизера, вам необходимо зарегистрироваться. Если регистрироваться лень - вы можете также попробовать скачать релиз по нашим партнерским ссылкам ниже. Кроме того, зарегистрированным пользователям не показывается всплывающая реклама при скачивании.

[underverse.me].t95372.torrent
Трекер: Зарегистрирован   [ 26.01.2018 15:47 ]  

Статус: проверено (by Паукан at 26.01.2018 15:48)
Поблагодарили: пока никто не поблагодарил...
Тип торрента: публичный - доступные источники с открытых трекеров: 
Размер: 656 MB (занимает 0,15 DVDR, для записи нужно 1 болванка DVDR/RW)
 
 
Похожие темы
Форум Тема Автор Торрент Отв. Посл. сооб.
Comedy Club Comedy Баттл. Новый сезон / Комеди Клаб / Comedy Club (2018.02.02) [2018 г., юмор, SATRip] (выпуск 2) Паукан
13 | 0

0 | 853

6

02.02.2018 23:04

Архив (телешоу) Comedy Баттл (Турнир 1) (Выпуски 1-11) (2011) SATRip [2011 г., Юмор, SatRip] SHuRuP
0 | 0

5 | 2432

3

31.01.2018 19:32

Архив (телешоу) Comedy Баттл (Отбор 2) (Выпуски 16-26) (2011) SATRip [2011 г., Юмор, SatRip] SHuRuP
0 | 0

9 | 2579

2

31.01.2018 19:32

Архив (телешоу) Comedy Баттл (Турнир 2) (Выпуски 12-22) (2012) SATRip [2012 г., Юмор, SatRip] SHuRuP
0 | 0

1 | 2063

4

25.05.2018 15:28

Архив (телешоу) Comedy Баттл (Выпуски 27-37, 39-45) (2012) SATRip [2012 г., Юмор, SatRip] SHuRuP
0 | 0

15 | 3407

0

31.01.2018 19:32

Архив (телешоу) Comedy Баттл (Выпуски 46-52) [2013 г., Юмор, SatRip] SHuRuP
0 | 0

4 | 2418

0

31.01.2018 19:33

Архив (телешоу) Comedy Баттл без границ [01-16] (2013, ТВ-шоу, юмор, импровизация, SATRip] Чертёнок
0 | 0

2 | 2212

3

31.01.2018 19:33


Яндекс.Метрика powered by Sphinx


В Н И М А Н И Е
Сайт не распространяет и не хранит электронные версии произведений, а лишь бесплатно и без коммерческой выгоды (не требуя взамен платы,
SMS и т.д.) предоставляет доступ к создаваемому пользователями каталогу ссылок на торрент-файлы, которые содержат только списки хеш-сумм.
Убедительная просьба с жалобами обращаться напрямую к пользователю, разместившему торрент файл.

Вверх