Loading...
Error

Пункт назначения 4 / The Final Destination 4 (Дэвид Р. Эллис / David R. Ellis) [2009 г., ужасы, триллер, BDRip]

Статистика раздачи
Размер:  2,18 GB   |    Зарегистрирован:  7 лет 6 месяцев   |    Скачан:  1 раз

Полного источника не было: 5 лет 6 месяцев

Сидов:  0  |  0 KB/s  ]   Личеров:  0  |  0 KB/s  ]

* - сиды/пиры с внешних источников

   
 
Автор Сообщение

GUree Пол:Муж

19-Янв-2010 05:14

Пункт назначения 4 / The Final Destination 4


Год выпуска: 2009
Жанр: ужасы, триллер
Страна: США
Режиссер: Дэвид Р. Эллис / David R. Ellis
В ролях: Криста Аллен, Ник Зано, Микелти Уильямсон, Бобби Кампо, Стефани Онор, Эндрю Фиссела, Билли Слоутер, Джастин Велборн, Дженна Крэйг, Лара Грайс, Энтони Майкл Фредерик, Престон Стротер, Чаз Смит, Дженни Пэрриш, Тони Палло, Джереми Палко, Ребекка Ньюман, Лори Ли

Сюжет фильма: История на этот раз вращается вокруг Ника О`Бэннона, к молодому человеку приходит видение — на автогонках произойдет ужасная трагедия, жертвами которой станут его друзья и он сам. Как и прежде группе счастливчиков, благодаря Нику, удается выжить, но смерть вовсе не спешит вычеркивать их из своего списка.

  • Мировая премьера: 26 августа 2009
  • Российская премьера: 9 сентября 2009, «Каро-Премьер»




Личная оценка: 9 - торкнуло

Качество видео: BDRip

Продолжительность: 01:21:49
Видео: кодек: x264, формат: mkv, размер кадра: 1024x424, битрейт: 2847 kbps
Аудио #1: язык: русский, перевод: дублированный (дубляж), кодек: AC3 5.1, битрейт: 448 kbps
Аудио #2: язык: английский, перевод: оригинал, кодек: AC3 5.1, битрейт: 448 kbps
Субтитры #1: тип: вшитые отключаемые, язык: русский, формат: S_TEXT/UTF8
Субтитры #2: тип: вшитые отключаемые, язык: надписи, русский, формат: S_TEXT/UTF8
Субтитры #3: тип: вшитые отключаемые, язык: английский, формат: S_TEXT/UTF8

Семпл 1 на multi-up; Семпл 1 на dump
Семпл 2 на multi-up; Семпл 2 на dump

Релиз группы:






General
Complete name : Final.Destination.4.2009.BDRip.AVC.mkv
Format : Matroska
File size : 2.18 GiB
Duration : 1h 21mn
Overall bit rate : 3 819 Kbps
Movie name : -=GUree=-
Encoded date : UTC 2010-01-19 03:53:52
Writing application : mkvmerge v2.9.9 ('Tutu') built on Nov 25 2009 21:13:32
Writing library : libebml v0.7.9 + libmatroska v0.8.1

Video
ID : 1
Format : AVC
Format/Info : Advanced Video Codec
Format profile : High@L4.1
Format settings, CABAC : Yes
Format settings, ReFrames : 8 frames
Muxing mode : Container profile=Unknown@4.1
Codec ID : V_MPEG4/ISO/AVC
Duration : 1h 21mn
Bit rate : 2 847 Kbps
Nominal bit rate : 2 923 Kbps
Width : 1 024 pixels
Height : 424 pixels
Display aspect ratio : 2.40:1
Frame rate : 23.976 fps
Resolution : 8 bits
Colorimetry : 4:2:0
Scan type : Progressive
Bits/(Pixel*Frame) : 0.274
Stream size : 1.63 GiB (74%)
Writing library : x264 core 79 r1342kMod e8501ef
Encoding settings : cabac=1 / ref=8 / deblock=1:-2:-1 / analyse=0x3:0x113 / me=tesa / subme=10 / psy=1 / psy_rd=1.0:0.4 / mixed_ref=1 / me_range=32 / chroma_me=1 / trellis=2 / 8x8dct=1 / cqm=0 / deadzone=21,11 / chroma_qp_offset=-4 / threads=6 / nr=0 / decimate=0 / mbaff=0 / constrained_intra=0 / bframes=6 / b_pyramid=0 / b_adapt=2 / b_bias=0 / direct=3 / wpredb=1 / wpredp=2 / keyint=250 / keyint_min=25 / scenecut=40 / rc_lookahead=60 / rc=2pass / mbtree=1 / bitrate=2923 / ratetol=1.0 / qcomp=0.60 / qpmin=10 / qpmax=51 / qpstep=4 / cplxblur=20.0 / qblur=0.5 / vbv_maxrate=50000 / vbv_bufsize=50000 / ip_ratio=1.40 / aq=1:1.00
Language : English

Audio #1
ID : 2
Format : AC-3
Format/Info : Audio Coding 3
Codec ID : A_AC3
Duration : 1h 21mn
Bit rate mode : Constant
Bit rate : 448 Kbps
Channel(s) : 6 channels
Channel positions : Front: L C R, Surround: L R, LFE
Sampling rate : 48.0 KHz
Stream size : 262 MiB (12%)
Title : AC3 5.1 448Kb/s
Language : Russian

Audio #2
ID : 3
Format : AC-3
Format/Info : Audio Coding 3
Codec ID : A_AC3
Duration : 1h 21mn
Bit rate mode : Constant
Bit rate : 448 Kbps
Channel(s) : 6 channels
Channel positions : Front: L C R, Surround: L R, LFE
Sampling rate : 48.0 KHz
Stream size : 262 MiB (12%)
Title : AC3 5.1 448Kb/s
Language : English

Text #1
ID : 4
Format : UTF-8
Codec ID : S_TEXT/UTF8
Codec ID/Info : UTF-8 Plain Text
Language : Russian

Text #2
ID : 5
Format : UTF-8
Codec ID : S_TEXT/UTF8
Codec ID/Info : UTF-8 Plain Text
Title : Nadpisi
Language : Russian

Text #3
ID : 6
Format : UTF-8
Codec ID : S_TEXT/UTF8
Codec ID/Info : UTF-8 Plain Text
Language : English

Этот торрент недоступен для скачивания без регистрации, однако доступен по публичной magnet-ссылке (источники с публичных трекеров). Перед использованием ссылки прочтите, пожалуйста Пользовательское соглашение, а также как можно дольше оставайтесь на раздаче! Для того, чтобы скачать сам торрент-файл (который видит больше источников), а также для того, чтобы поблагодарить релизера, вам необходимо зарегистрироваться. Если регистрироваться лень - вы можете также попробовать скачать релиз по нашим партнерским ссылкам ниже.

[underverse.su].t8428.torrent
Трекер: Зарегистрирован   [ 19.01.2010 05:14 ]  

Статус: проверено (by GUree at 19.01.2010 06:14)
Поблагодарили: 1 человек
Тип торрента: публичный - доступные источники с открытых трекеров: 
Размер: 2,18 GB (занимает 1/2 DVDR, для записи нужно 1 болванка DVDR/RW)
 
 
Похожие темы
Форум Тема Автор Торрент Отв. Посл. сооб.
Зарубежное кино [DVDRip, Low-Res HDRip, и т.д.] Пункт назначения 3 / Final Destination 3 (Джеймс Вонг) [2006 г., ужасы, драма, триллер, детектив, HDTVRip] GUree
0 | 0

3 | 1836

8

11.11.2009 09:29

Зарубежное кино [DVDRip, Low-Res HDRip, и т.д.] Пункт назначения 2 / Final Destination 2 (Дэвид Р. Эллис) [2003 г., мистика, BDRip] GUree
0 | 0

8 | 10597

3

03.09.2009 13:25

Зарубежное кино [DVDRip, Low-Res HDRip, и т.д.] Пункт назначения / Final Destination (Джеймс Вонг) [2000 г., триллер, BDRip] GUree
0 | 0

2 | 1349

1

03.09.2009 10:28

Зарубежное кино [DVDRip, Low-Res HDRip, и т.д.] Пункт назначения 4 / The Final Destination (Дэвид Р. Эллис) [2009 г., ужасы, триллер, HD DVDRip] puzzikat
0 | 0

3 | 9233

35

07.01.2010 12:43

Зарубежное кино [DVDRip, Low-Res HDRip, и т.д.] Пункт назначения 5 / Final Destination 5 (Стивен Куэйл) [2011 г., ужасы, триллер , HDRip Лицензия] P.O.C.O.X.A
1 | 0

2 | 770

31

01.05.2012 13:24

Зарубежное кино [DVDRip, Low-Res HDRip, и т.д.] Пункт назначения 5 / Final Destination 5 (Стивен Куэйл / Steven Quale) [2011 г., ужасы, триллер, HDRip] AVO (Гаврилов) 90ytr90
0 | 0

0 | 535

6

09.01.2015 14:50

Зарубежное кино HQ Пункт назначения / Final Destination (Джеймс Вонг) [2000 г., ужасы, фантастика, триллер, детектив, BDRip] Паукан
0 | 0

5 | 1629

5

18.10.2011 07:40

Зарубежное кино [HDDVDRip / BDRip / WEB-DL / HDTV 1080/720р] Пункт назначения 5 / Final Destination 5 (Стивен Куэйл) [2011 г., Ужасы, триллер, BDRip 720p] Dub Чертёнок
0 | 0

1 | 989

9

23.08.2014 11:48

* Архив Пункт назначения 4 / The Final Destination (Дэвид Р. Эллис) [2009 г., ужасы, триллер, DVD-9](2D & 3D) 2*DVD-9 andrej-ku

3 | 1073

30.08.2010 01:30

Архив Пункт назначения 4 \ Final Destination 4(Дэвид Р. Эллис) [2009 г., ужасы, триллер, BDRip-720p ] BartSimpson
0 | 0

1 | 911

0

17.02.2011 14:46


Яндекс.Метрика powered by Sphinx


В Н И М А Н И Е
Сайт не распространяет и не хранит электронные версии произведений, а лишь бесплатно и без коммерческой выгоды (не требуя взамен платы,
SMS и т.д.) предоставляет доступ к создаваемому пользователями каталогу ссылок на торрент-файлы, которые содержат только списки хеш-сумм.
Убедительная просьба с жалобами обращаться напрямую к пользователю, разместившему торрент файл.

Вверх