Loading...
Error

Роковая красотка / Hors de prix / Priceless (Пьер Сальвадори / Pierre Salvadori) [2006 г., комедия, мелодрама, BDRip]

Статистика раздачи
Размер:  2,18 GB   |    Зарегистрирован:  4 года 10 месяцев   |    Скачан:  7 раз

Полного источника не было: 8 дней

Сидов:  0  |  0 KB/s  ]   Личеров:  0  |  0 KB/s  ]

* - сиды/пиры с внешних источников

   
 
Автор Сообщение

GUree Пол:Муж

14-Янв-2010 04:15

Роковая красотка / Hors de prix / Priceless


Год выпуска: 2006
Жанр: комедия, мелодрама
Страна: Франция
Режиссер: Пьер Сальвадори / Pierre Salvadori
В ролях: Одри Тоту (Audrey Tautou), Гад Элмале (Gad Elmaleh), Мари-Кристин Адам (Мари-Кристин Адам), Вернон Добчефф (Вернон Добчефф), Жак Списсер (Jacques Spiesser), Аннелиз Хесме (Annelise Hesme), Шарлотта Вермейл (Charlotte Vermeil), Клодин Башет (Claudine Baschet), Лорен Кларет (Laurent Claret), Жан Де Конинк (Jean de Coninck) и др.

Сюжет фильма: Авантюристка Ирен принимает скромного служащего отеля Жана за миллиардера. Обнаружив свою ошибку, она тут же покидает его, однако влюбленный Жан бросается следом.

Его сбережения быстро заканчиваются, и от отчаяния Жан принимает предложение стать сопровождающим немолодой, но чрезвычайно обеспеченной дамы. Новый статус сближает его с Ирен, которая, в конце концов, смиряется с присутствием Жана. Она помогает Жану советом, и, сама того не осознавая, начинает все больше и больше привязываться к нему.


  • Мировая премьера: 18 ноября 2006
  • Российская премьера: 2 августа 2007, «Централ Партнершип»




Личная оценка: 10 - всем советую

Качество видео: BDRip

Продолжительность: 01:45:54
Видео: кодек: x264, формат: mkv, размер кадра: 1024x432, битрейт: 2125 kbps
Аудио #1: язык: русский, перевод: дублированный (дубляж), кодек: AC3 5.1, битрейт: 384 kbps
Аудио #2: язык: французский, перевод: оригинал, кодек: AC3 5.1, битрейт: 384 kbps
Субтитры #1: тип: вшитые отключаемые, язык: русский, формат: S_TEXT/UTF8
Субтитры #2: тип: вшитые отключаемые, язык: английский, формат: S_TEXT/UTF8

Семпл 1 на multi-up; Семпл 1 на dump
Семпл 2 на multi-up; Семпл 2 на dump

Релиз группы:






General
Complete name : Hors_de_prix.2006.BDRip.AVC.mkv
Format : Matroska
File size : 2.18 GiB
Duration : 1h 45mn
Overall bit rate : 2 952 Kbps
Movie name : -=GUree=-
Encoded date : UTC 2010-01-04 22:29:17
Writing application : mkvmerge v2.9.9 ('Tutu') built on Nov 25 2009 21:13:32
Writing library : libebml v0.7.9 + libmatroska v0.8.1

Video
ID : 1
Format : AVC
Format/Info : Advanced Video Codec
Format profile : High@L4.1
Format settings, CABAC : Yes
Format settings, ReFrames : 8 frames
Muxing mode : Container profile=Unknown@4.1
Codec ID : V_MPEG4/ISO/AVC
Duration : 1h 45mn
Bit rate : 2 125 Kbps
Nominal bit rate : 2 182 Kbps
Width : 1 024 pixels
Height : 432 pixels
Display aspect ratio : 2.35:1
Frame rate : 23.976 fps
Resolution : 8 bits
Colorimetry : 4:2:0
Scan type : Progressive
Bits/(Pixel*Frame) : 0.200
Stream size : 1.57 GiB (72%)
Writing library : x264 core 79 r1342kMod e8501ef
Encoding settings : cabac=1 / ref=8 / deblock=1:-2:-1 / analyse=0x3:0x113 / me=tesa / subme=10 / psy=1 / psy_rd=1.0:0.4 / mixed_ref=1 / me_range=32 / chroma_me=1 / trellis=2 / 8x8dct=1 / cqm=0 / deadzone=21,11 / chroma_qp_offset=-4 / threads=6 / nr=0 / decimate=0 / mbaff=0 / constrained_intra=0 / bframes=6 / b_pyramid=0 / b_adapt=2 / b_bias=0 / direct=3 / wpredb=1 / wpredp=2 / keyint=250 / keyint_min=25 / scenecut=40 / rc_lookahead=60 / rc=2pass / mbtree=1 / bitrate=2182 / ratetol=1.0 / qcomp=0.60 / qpmin=10 / qpmax=51 / qpstep=4 / cplxblur=20.0 / qblur=0.5 / vbv_maxrate=50000 / vbv_bufsize=50000 / ip_ratio=1.40 / aq=1:1.00

Audio #1
ID : 2
Format : AC-3
Format/Info : Audio Coding 3
Codec ID : A_AC3
Duration : 1h 45mn
Bit rate mode : Constant
Bit rate : 384 Kbps
Channel(s) : 6 channels
Channel positions : Front: L C R, Surround: L R, LFE
Sampling rate : 48.0 KHz
Stream size : 291 MiB (13%)
Title : AC3 5.1 384Kb/s
Language : Russian

Audio #2
ID : 3
Format : AC-3
Format/Info : Audio Coding 3
Codec ID : A_AC3
Duration : 1h 45mn
Bit rate mode : Constant
Bit rate : 384 Kbps
Channel(s) : 6 channels
Channel positions : Front: L C R, Surround: L R, LFE
Sampling rate : 48.0 KHz
Stream size : 291 MiB (13%)
Title : AC3 5.1 384Kb/s
Language : French

Text #1
ID : 4
Format : UTF-8
Codec ID : S_TEXT/UTF8
Codec ID/Info : UTF-8 Plain Text
Language : Russian

Text #2
ID : 5
Format : UTF-8
Codec ID : S_TEXT/UTF8
Codec ID/Info : UTF-8 Plain Text
Language : English

Этот торрент недоступен для скачивания без регистрации, однако доступен по публичной magnet-ссылке (источники с публичных трекеров). Перед использованием ссылки прочтите, пожалуйста Пользовательское соглашение, а также как можно дольше оставайтесь на раздаче! Для того, чтобы скачать сам торрент-файл (который видит больше источников), а также для того, чтобы поблагодарить релизера, вам необходимо зарегистрироваться. Если регистрироваться лень - вы можете также попробовать скачать релиз по нашим партнерским ссылкам ниже.

[underverse.su].t16713.torrent
Трекер: Зарегистрирован   [ 09.01.2012 22:04 ]  

Статус: проверено (by garry at 09.01.2012 23:25)
Поблагодарили: 1 человек
Тип торрента: публичный - доступные источники с открытых трекеров: 
Размер: 2,18 GB (занимает 1/2 DVDR, для записи нужно 1 болванка DVDR/RW)
 
 


Последний раз редактировалось: GUree (08.02.2012 08:53), всего редактировалось 4 раз(а)

sharmar 

14-Янв-2010 10:04

Отличный фильм,
Смотрел его уже 3 раза

GUree Пол:Муж

15-Янв-2010 13:56

Н-да! меня Одри тоже заводит! есь в ней что-то такое! :) :lol:

05-Ноя-2011 14:45

Топик был перенесен из форума Зарубежное кино AVC в форум Архив


[cron robot]
 

09-Янв-2012 23:23

Топик был перенесен из форума Архив в форум Зарубежное кино AVC


gari
 

Яндекс.Метрика powered by Sphinx


В Н И М А Н И Е
Сайт не распространяет и не хранит электронные версии произведений, а лишь бесплатно и без коммерческой выгоды (не требуя взамен платы,
SMS и т.д.) предоставляет доступ к создаваемому пользователями каталогу ссылок на торрент-файлы, которые содержат только списки хеш-сумм.
Убедительная просьба с жалобами обращаться напрямую к пользователю, разместившему торрент файл.

Вверх