Loading...
Error

Вам письмо / You've Got Mail (Нора Эфрон / Nora Ephron) [1998 г., комедия, мелодрама, DVDRip]

Статистика раздачи
Размер:  2,18 GB   |    Зарегистрирован:  6 лет 10 месяцев   |    Скачан:  2 раза

Полного источника не было: 4 года 4 месяца

Сидов:  0  |  0 KB/s  ]   Личеров:  0  |  0 KB/s  ]

* - сиды/пиры с внешних источников

   
 
Автор Сообщение

GUree Пол:Муж

14-Янв-2010 02:31

Вам письмо / You've Got Mail


Год выпуска: 1998
Жанр: комедия, мелодрама
Страна: США
Режиссер: Нора Эфрон / Nora Ephron
В ролях: Том Хэнкс, Мэг Райан, Грег Киннер, Паркер Пози, Жан Степлтон, Стив Занн, Хезер Барнс, Дэвид Чаппелль, Дэбни Коулмэн, Джон Рэндольф.

Сюжет фильма: Джо Фокс и Кэтлин Келли переписываются через Интернет. У Джо есть девушка, у Кэтлин — парень, но излить душу они могут лишь друг другу. Кэтлин принадлежит маленький книжный магазинчик детской литературы под названием «Магазин за углом», перешедший ей от матери. Для нее, трех ее сотрудников и покупателей это не просто место работы — это оазис тепла, человечности и культуры.

Джо владеет сетью огромных книжных супермаркетов «Фокс и сыновья». Он открывает такой комплекс рядом с магазином Кэтлин и заходит к ней якобы купить несколько книжек для детей. Так состоялось их «живое» знакомство. Чуть позже Кэтлин узнает, что Джо и есть владелец супермаркета, грозящего ей неизбежным разорением — цены там намного ниже. Естественно, она сразу же возненавидела бездушного конкурента. А в Интернете их роман продолжался…


  • Мировая премьера: 18 декабря 1998




Личная оценка: 10 - всем советую

Качество видео: DVDRip

Продолжительность: 01:54:44
Видео: кодек: x264, формат: mkv, размер кадра: 720x576@1024x576, битрейт: 1900 kbps
Аудио #1: язык: русский, перевод: дублированный (дубляж), кодек: AC3 5.1, битрейт: 384 kbps
Аудио #2: язык: английский, перевод: оригинал, кодек: AC3 5.1, битрейт: 384 kbps
Субтитры #1: тип: вшитые отключаемые, язык: русский, формат: S_TEXT/UTF8
Субтитры #2: тип: вшитые отключаемые, язык: английский, формат: S_TEXT/UTF8

Семпл 1 на multi-up
Семпл 2 на multi-up

Релиз группы:






General
Complete name : Yuo'va_got_mail.1998.DVDRip.AVC.mkv
Format : Matroska
File size : 2.18 GiB
Duration : 1h 54mn
Overall bit rate : 2 723 Kbps
Movie name : -=GUree=-
Encoded date : UTC 2010-01-14 01:48:00
Writing application : mkvmerge v2.9.9 ('Tutu') built on Nov 25 2009 21:13:32
Writing library : libebml v0.7.9 + libmatroska v0.8.1

Video
ID : 1
Format : AVC
Format/Info : Advanced Video Codec
Format profile : High@L4.1
Format settings, CABAC : Yes
Format settings, ReFrames : 10 frames
Muxing mode : Container profile=Unknown@4.1
Codec ID : V_MPEG4/ISO/AVC
Duration : 1h 54mn
Bit rate : 1 901 Kbps
Nominal bit rate : 1 953 Kbps
Width : 720 pixels
Height : 576 pixels
Display aspect ratio : 16:9
Frame rate : 25.000 fps
Standard : PAL
Resolution : 8 bits
Colorimetry : 4:2:0
Scan type : Progressive
Bits/(Pixel*Frame) : 0.183
Stream size : 1.52 GiB (70%)
Writing library : x264 core 79 r1342kMod e8501ef
Encoding settings : cabac=1 / ref=10 / deblock=1:-2:-1 / analyse=0x3:0x113 / me=tesa / subme=10 / psy=1 / psy_rd=1.0:0.4 / mixed_ref=1 / me_range=32 / chroma_me=1 / trellis=2 / 8x8dct=1 / cqm=0 / deadzone=21,11 / chroma_qp_offset=-4 / threads=6 / nr=0 / decimate=0 / mbaff=0 / constrained_intra=0 / bframes=8 / b_pyramid=0 / b_adapt=2 / b_bias=0 / direct=3 / wpredb=1 / wpredp=2 / keyint=250 / keyint_min=25 / scenecut=40 / rc_lookahead=60 / rc=2pass / mbtree=1 / bitrate=1953 / ratetol=1.0 / qcomp=0.60 / qpmin=10 / qpmax=51 / qpstep=4 / cplxblur=20.0 / qblur=0.5 / vbv_maxrate=50000 / vbv_bufsize=50000 / ip_ratio=1.40 / aq=1:1.00

Audio #1
ID : 2
Format : AC-3
Format/Info : Audio Coding 3
Codec ID : A_AC3
Duration : 1h 54mn
Bit rate mode : Constant
Bit rate : 384 Kbps
Channel(s) : 6 channels
Channel positions : Front: L C R, Surround: L R, LFE
Sampling rate : 48.0 KHz
Stream size : 315 MiB (14%)
Title : AC3 5.1 384Kb/s
Language : Russian

Audio #2
ID : 3
Format : AC-3
Format/Info : Audio Coding 3
Codec ID : A_AC3
Duration : 1h 54mn
Bit rate mode : Constant
Bit rate : 384 Kbps
Channel(s) : 6 channels
Channel positions : Front: L C R, Surround: L R, LFE
Sampling rate : 48.0 KHz
Stream size : 315 MiB (14%)
Title : AC3 5.1 384Kb/s
Language : English

Text #1
ID : 4
Format : UTF-8
Codec ID : S_TEXT/UTF8
Codec ID/Info : UTF-8 Plain Text
Language : Russian

Text #2
ID : 5
Format : UTF-8
Codec ID : S_TEXT/UTF8
Codec ID/Info : UTF-8 Plain Text
Language : English

Этот торрент недоступен для скачивания без регистрации, однако доступен по публичной magnet-ссылке (источники с публичных трекеров). Перед использованием ссылки прочтите, пожалуйста Пользовательское соглашение, а также как можно дольше оставайтесь на раздаче! Для того, чтобы скачать сам торрент-файл (который видит больше источников), а также для того, чтобы поблагодарить релизера, вам необходимо зарегистрироваться. Если регистрироваться лень - вы можете также попробовать скачать релиз по нашим партнерским ссылкам ниже.

[underverse.su].t8356.torrent
Трекер: Зарегистрирован   [ 14.01.2010 02:31 ]  

Статус: проверено (by GUree at 14.01.2010 03:21)
Поблагодарили: 1 человек
Тип торрента: публичный - доступные источники с открытых трекеров: 
Размер: 2,18 GB (занимает 1/2 DVDR, для записи нужно 1 болванка DVDR/RW)
 
 

Яндекс.Метрика powered by Sphinx


В Н И М А Н И Е
Сайт не распространяет и не хранит электронные версии произведений, а лишь бесплатно и без коммерческой выгоды (не требуя взамен платы,
SMS и т.д.) предоставляет доступ к создаваемому пользователями каталогу ссылок на торрент-файлы, которые содержат только списки хеш-сумм.
Убедительная просьба с жалобами обращаться напрямую к пользователю, разместившему торрент файл.

Вверх