Loading...
Error

Неспящие в Сиэтле / Sleepless in Seattle (Нора Эфрон / Nora Ephron) [1993 г., комедия, мелодрама, DVDRip]

Статистика раздачи
Размер:  2,19 GB   |    Зарегистрирован:  6 лет 6 месяцев   |    Скачан:  2 раза

Полного источника не было: 4 года 4 месяца

Сидов:  0  |  0 KB/s  ]   Личеров:  0  |  0 KB/s  ]

* - сиды/пиры с внешних источников

   
 
Автор Сообщение

GUree Пол:Муж

05-Янв-2010 06:00

Неспящие в Сиэтле / Sleepless in Seattle


Год выпуска: 1993
Жанр: комедия, мелодрама
Страна: США
Режиссер: Нора Эфрон / Nora Ephron
В ролях: Том Хэнкс, Мег Райан, Билл Пуллман, Росс Мэлинджер, Рози О`Доннелл, Рита Уилсон и др.

Сюжет фильма: Поздней ночью радио доносит голос маленького ребенка, который ищет маму. Сотни женщин со всей страны откликаются на этот зов, и только одна из них понимает — отец ребенка и она — предназначены друг для друга, пусть даже между ними сотни миль. И не беда, что она обручена, а ее новый избранник еще не знает о ней. Его единственная и далекая ждет и ищет его, влюбившись с первого звука его голоса.

  • Мировая премьера: 25 июня 1993




Личная оценка: 10 - всем советую

Качество видео: DVDRip

Продолжительность: 09:59:14
Видео: кодек: x264, формат: mkv, размер кадра: 720x552@1024x552, битрейт: 2332 kbps
Аудио #1: язык: русский, перевод: дублированный (дубляж), кодек: AC3 2.0, битрейт: 192 kbps
Аудио #2: язык: русский, перевод: многоголосый закадровый, кодек: AC3 2.0, битрейт: 192 kbps
Аудио #3: язык: русский, перевод: одноголосный закадровый (А. Михалёв), кодек: AC3 2.0, битрейт: 192 kbps
Аудио #4: язык: английский, перевод: оригинал, кодек: AC3 2.0, битрейт: 192 kbps
Субтитры #1: тип: вшитые отключаемые, язык: русский, формат: S_TEXT/UTF8
Субтитры #2: тип: вшитые отключаемые, язык: английский, формат: S_TEXT/UTF8

Семпл 1 на multi-up
Семпл 2 на multi-up

Релиз группы:
General
Complete name : Sleepless_in_Seattle.1993.DVDRip.AVC.mkv
Format : Matroska
File size : 2.19 GiB
Duration : 9h 59mn
Overall bit rate : 522 Kbps
Movie name : -=GUree=-
Encoded date : UTC 2010-01-05 01:58:12
Writing application : mkvmerge v2.9.9 ('Tutu') built on Nov 25 2009 21:13:32
Writing library : libebml v0.7.9 + libmatroska v0.8.1

Video
ID : 1
Format : AVC
Format/Info : Advanced Video Codec
Format profile : High@L4.1
Format settings, CABAC : Yes
Format settings, ReFrames : 8 frames
Muxing mode : Container profile=Unknown@4.1
Codec ID : V_MPEG4/ISO/AVC
Duration : 9h 59mn
Nominal bit rate : 2 332 Kbps
Width : 720 pixels
Height : 552 pixels
Display aspect ratio : 1.850
Frame rate : 25.000 fps
Resolution : 8 bits
Colorimetry : 4:2:0
Scan type : Progressive
Bits/(Pixel*Frame) : 0.235
Writing library : x264 core 79 r1342kMod e8501ef
Encoding settings : cabac=1 / ref=8 / deblock=1:-2:-1 / analyse=0x3:0x113 / me=tesa / subme=10 / psy=1 / psy_rd=1.0:0.4 / mixed_ref=1 / me_range=32 / chroma_me=1 / trellis=2 / 8x8dct=1 / cqm=0 / deadzone=21,11 / chroma_qp_offset=-4 / threads=6 / nr=0 / decimate=0 / mbaff=0 / constrained_intra=0 / bframes=6 / b_pyramid=0 / b_adapt=2 / b_bias=0 / direct=3 / wpredb=1 / wpredp=2 / keyint=250 / keyint_min=25 / scenecut=40 / rc_lookahead=60 / rc=2pass / mbtree=1 / bitrate=2332 / ratetol=1.0 / qcomp=0.60 / qpmin=10 / qpmax=51 / qpstep=4 / cplxblur=20.0 / qblur=0.5 / vbv_maxrate=50000 / vbv_bufsize=50000 / ip_ratio=1.40 / aq=1:1.00
Language : English

Audio #1
ID : 2
Format : AC-3
Format/Info : Audio Coding 3
Codec ID : A_AC3
Duration : 9h 59mn
Bit rate mode : Constant
Bit rate : 192 Kbps
Channel(s) : 2 channels
Channel positions : L R
Sampling rate : 48.0 KHz
Stream size : 823 MiB (37%)
Title : AC3 2.0 192Kb/s (Dub)
Language : Russian

Audio #2
ID : 3
Format : AC-3
Format/Info : Audio Coding 3
Codec ID : A_AC3
Duration : 9h 59mn
Bit rate mode : Constant
Bit rate : 192 Kbps
Channel(s) : 2 channels
Channel positions : L R
Sampling rate : 48.0 KHz
Stream size : 823 MiB (37%)
Title : AC3 2.0 192Kb/s (MVO)
Language : Russian

Audio #3
ID : 4
Format : AC-3
Format/Info : Audio Coding 3
Codec ID : A_AC3
Duration : 9h 59mn
Bit rate mode : Constant
Bit rate : 192 Kbps
Channel(s) : 2 channels
Channel positions : L R
Sampling rate : 48.0 KHz
Stream size : 823 MiB (37%)
Title : AC3 2.0 192Kb/s (Mihalev)
Language : Russian

Audio #4
ID : 5
Format : AC-3
Format/Info : Audio Coding 3
Format profile : Dolby Digital
Codec ID : A_AC3
Duration : 9h 59mn
Bit rate mode : Constant
Bit rate : 192 Kbps
Channel(s) : 2 channels
Channel positions : L R
Sampling rate : 48.0 KHz
Stream size : 823 MiB (37%)
Title : AC3 2.0 192Kb/s
Language : English

Text #1
ID : 6
Format : UTF-8
Codec ID : S_TEXT/UTF8
Codec ID/Info : UTF-8 Plain Text
Language : Russian

Text #2
ID : 7
Format : UTF-8
Codec ID : S_TEXT/UTF8
Codec ID/Info : UTF-8 Plain Text
Language : English






Этот торрент недоступен для скачивания без регистрации, однако доступен по публичной magnet-ссылке (источники с публичных трекеров). Перед использованием ссылки прочтите, пожалуйста Пользовательское соглашение, а также как можно дольше оставайтесь на раздаче! Для того, чтобы скачать сам торрент-файл (который видит больше источников), а также для того, чтобы поблагодарить релизера, вам необходимо зарегистрироваться. Если регистрироваться лень - вы можете также попробовать скачать релиз по нашим партнерским ссылкам ниже.

[underverse.su].t8247.torrent
Трекер: Зарегистрирован   [ 20.05.2010 05:20 ]  

Статус: проверено (by Joey at 23.05.2010 22:08)
Поблагодарили: пока никто не поблагодарил...
Тип торрента: публичный - доступные источники с открытых трекеров: 
Размер: 2,19 GB (занимает 1/2 DVDR, для записи нужно 1 болванка DVDR/RW)
 
 


Последний раз редактировалось: GUree (25.05.2010 15:39), всего редактировалось 7 раз(а)

Tommy-Gun 

08-Фев-2010 21:40

дякую

Яндекс.Метрика powered by Sphinx


В Н И М А Н И Е
Сайт не распространяет и не хранит электронные версии произведений, а лишь бесплатно и без коммерческой выгоды (не требуя взамен платы,
SMS и т.д.) предоставляет доступ к создаваемому пользователями каталогу ссылок на торрент-файлы, которые содержат только списки хеш-сумм.
Убедительная просьба с жалобами обращаться напрямую к пользователю, разместившему торрент файл.

Вверх