Loading...
Error

(Techno, Grime, Experimental) Andy Stott - Too Many Voices (2016) [FLAC (Tracks+.Cue), Lossless]

Статистика раздачи
Размер:  293 MB   |    Зарегистрирован:  1 год 1 месяц   |    Скачан:  3 раза

Полного источника не было: 1 месяц 22 дня

Сидов:  0  |  0 KB/s  ]   Личеров:  0  |  0 KB/s  ]

* - сиды/пиры с внешних источников

   
 
Автор Сообщение

Бишеп Пол:Муж

27-Окт-2017 03:35

Andy Stott - Too Many Voices

Жанр: Techno, Grime, Experimental
Год выпуска: 2016
Источник: CD
Производитель диска: Modern Love - LOVE101
Аудиокодек: FLAC
Тип рипа: Tracks+.CUE
Битрейт аудио: lossless
Продолжительность: 00:46:19


Треклист:
01. Waiting For You
02. Butterflies
03. New Romantic
04. First Night
05. Forgotten
06. Selfish
07. On My Mind
08. Over
09. Too Many Voices

Код:

Exact Audio Copy V1.1 from 23. June 2015

EAC extraction logfile from 21. June 2016, 15:45

Andy Stott / Too Many Voices

Used drive  : HL-DT-STDVDRAM GP40NB40   Adapter: 1  ID: 1

Read mode               : Secure
Utilize accurate stream : Yes
Defeat audio cache      : Yes
Make use of C2 pointers : No

Read offset correction                      : 6
Overread into Lead-In and Lead-Out          : No
Fill up missing offset samples with silence : Yes
Delete leading and trailing silent blocks   : No
Null samples used in CRC calculations       : Yes
Used interface                              : Native Win32 interface for Win NT & 2000
Gap handling                                : Appended to previous track

Used output format              : User Defined Encoder
Selected bitrate                : 1024 kBit/s
Quality                         : High
Add ID3 tag                     : No
Command line compressor         : C:\Program Files (x86)\Exact Audio Copy\Flac\flac.exe
Additional command line options : -8 -V -T "TRACKNUMBER=%tracknr2%" -T "TITLE=%title%" -T "ARTIST=%artist%" -T "ALBUM=%albumtitle%" -T "ALBUMARTIST=%albumartist%" -T "DATE=%year%" -T "GENRE=%genre%" -T "ORGANIZATION=%albuminterpret%" -T "CATALOG=%composer%" -T "MEDIATYPE=CD" -T "RELEASETYPE=%comment%" %source% -o %dest%

TOC of the extracted CD

     Track |   Start  |  Length  | Start sector | End sector
    ---------------------------------------------------------
        1  |  0:00.00 |  2:41.52 |         0    |    12126   
        2  |  2:41.52 |  4:23.26 |     12127    |    31877   
        3  |  7:05.03 |  5:39.34 |     31878    |    57336   
        4  | 12:44.37 |  5:44.65 |     57337    |    83201   
        5  | 18:29.27 |  5:47.05 |     83202    |   109231   
        6  | 24:16.32 |  4:34.18 |    109232    |   129799   
        7  | 28:50.50 |  6:16.29 |    129800    |   158028   
        8  | 35:07.04 |  5:03.57 |    158029    |   180810   
        9  | 40:10.61 |  6:08.12 |    180811    |   208422   

Track  1

     Filename C:\EAC Rips\Andy Stott - Too Many Voices (2016) [CD] [FLAC] [LOVE101]\01. Andy Stott - Waiting For You.wav

     Pre-gap length  0:00:02.00

     Peak level 96.5 %
     Extraction speed 0.9 X
     Track quality 99.9 %
     Test CRC CAFEB39F
     Copy CRC CAFEB39F
     Accurately ripped (confidence 2)  [344086AA]  (AR v2)
     Copy OK

Track  2

     Filename C:\EAC Rips\Andy Stott - Too Many Voices (2016) [CD] [FLAC] [LOVE101]\02. Andy Stott - Butterflies.wav

     Peak level 96.5 %
     Extraction speed 1.2 X
     Track quality 100.0 %
     Test CRC 463A4F5E
     Copy CRC 463A4F5E
     Accurately ripped (confidence 2)  [426471B4]  (AR v2)
     Copy OK

Track  3

     Filename C:\EAC Rips\Andy Stott - Too Many Voices (2016) [CD] [FLAC] [LOVE101]\03. Andy Stott - New Romantic.wav

     Peak level 96.5 %
     Extraction speed 1.4 X
     Track quality 100.0 %
     Test CRC E2AB4EDC
     Copy CRC E2AB4EDC
     Accurately ripped (confidence 2)  [9435D4E6]  (AR v2)
     Copy OK

Track  4

     Filename C:\EAC Rips\Andy Stott - Too Many Voices (2016) [CD] [FLAC] [LOVE101]\04. Andy Stott - First Night.wav

     Peak level 96.5 %
     Extraction speed 1.6 X
     Track quality 100.0 %
     Test CRC 055368BD
     Copy CRC 055368BD
     Accurately ripped (confidence 2)  [DACF463D]  (AR v2)
     Copy OK

Track  5

     Filename C:\EAC Rips\Andy Stott - Too Many Voices (2016) [CD] [FLAC] [LOVE101]\05. Andy Stott - Forgotten.wav

     Peak level 96.5 %
     Extraction speed 1.7 X
     Track quality 100.0 %
     Test CRC 867678E3
     Copy CRC 867678E3
     Accurately ripped (confidence 2)  [E83FC946]  (AR v2)
     Copy OK

Track  6

     Filename C:\EAC Rips\Andy Stott - Too Many Voices (2016) [CD] [FLAC] [LOVE101]\06. Andy Stott - Selfish.wav

     Peak level 96.5 %
     Extraction speed 1.6 X
     Track quality 99.9 %
     Test CRC 03F04A45
     Copy CRC 03F04A45
     Accurately ripped (confidence 2)  [D0976F48]  (AR v2)
     Copy OK

Track  7

     Filename C:\EAC Rips\Andy Stott - Too Many Voices (2016) [CD] [FLAC] [LOVE101]\07. Andy Stott - On My Mind.wav

     Peak level 96.5 %
     Extraction speed 2.0 X
     Track quality 100.0 %
     Test CRC C6923FB1
     Copy CRC C6923FB1
     Accurately ripped (confidence 2)  [B852A4C3]  (AR v2)
     Copy OK

Track  8

     Filename C:\EAC Rips\Andy Stott - Too Many Voices (2016) [CD] [FLAC] [LOVE101]\08. Andy Stott - Over.wav

     Peak level 96.5 %
     Extraction speed 1.9 X
     Track quality 99.9 %
     Test CRC C703059D
     Copy CRC C703059D
     Accurately ripped (confidence 2)  [412FC1B6]  (AR v2)
     Copy OK

Track  9

     Filename C:\EAC Rips\Andy Stott - Too Many Voices (2016) [CD] [FLAC] [LOVE101]\09. Andy Stott - Too Many Voices.wav

     Peak level 96.5 %
     Extraction speed 2.0 X
     Track quality 99.9 %
     Test CRC CCD5147A
     Copy CRC CCD5147A
     Accurately ripped (confidence 2)  [E9B0460F]  (AR v2)
     Copy OK

All tracks accurately ripped

No errors occurred

End of status report

---- CUETools DB Plugin V2.1.6

[CTDB TOCID: prmUgp8.e50L8QiXYc9YLk_8kKk-] found
Submit result: prmUgp8.e50L8QiXYc9YLk_8kKk- has been confirmed
Track | CTDB Status
  1   | (17/17) Accurately ripped
  2   | (17/17) Accurately ripped
  3   | (17/17) Accurately ripped
  4   | (16/17) Accurately ripped
  5   | (17/17) Accurately ripped
  6   | (17/17) Accurately ripped
  7   | (17/17) Accurately ripped
  8   | (17/17) Accurately ripped
  9   | (17/17) Accurately ripped

==== Log checksum 63C86D8247D6AA1A3DE1B74EAFE2E0DEC85CCFD1FBFE137ECAFAAF4A6A08DDF4 ====

Код:

REM GENRE "Abstract / Bass / Techno"
REM DATE 2016
REM DISCID 640ADA09
REM COMMENT "ExactAudioCopy v1.1"
PERFORMER "Andy Stott"
TITLE "Too Many Voices"
FILE "01. Andy Stott - Waiting For You.wav" WAVE
  TRACK 01 AUDIO
    TITLE "Waiting For You"
    PERFORMER "Andy Stott"
    INDEX 01 00:00:00
FILE "02. Andy Stott - Butterflies.wav" WAVE
  TRACK 02 AUDIO
    TITLE "Butterflies"
    PERFORMER "Andy Stott"
    INDEX 01 00:00:00
FILE "03. Andy Stott - New Romantic.wav" WAVE
  TRACK 03 AUDIO
    TITLE "New Romantic"
    PERFORMER "Andy Stott"
    INDEX 01 00:00:00
FILE "04. Andy Stott - First Night.wav" WAVE
  TRACK 04 AUDIO
    TITLE "First Night"
    PERFORMER "Andy Stott"
    INDEX 01 00:00:00
FILE "05. Andy Stott - Forgotten.wav" WAVE
  TRACK 05 AUDIO
    TITLE "Forgotten"
    PERFORMER "Andy Stott"
    INDEX 01 00:00:00
FILE "06. Andy Stott - Selfish.wav" WAVE
  TRACK 06 AUDIO
    TITLE "Selfish"
    PERFORMER "Andy Stott"
    INDEX 01 00:00:00
FILE "07. Andy Stott - On My Mind.wav" WAVE
  TRACK 07 AUDIO
    TITLE "On My Mind"
    PERFORMER "Andy Stott"
    INDEX 01 00:00:00
FILE "08. Andy Stott - Over.wav" WAVE
  TRACK 08 AUDIO
    TITLE "Over"
    PERFORMER "Andy Stott"
    INDEX 01 00:00:00
FILE "09. Andy Stott - Too Many Voices.wav" WAVE
  TRACK 09 AUDIO
    TITLE "Too Many Voices"
    PERFORMER "Andy Stott"
    INDEX 01 00:00:00

Этот торрент недоступен для скачивания без регистрации, однако доступен по публичной magnet-ссылке (источники с публичных трекеров). Перед использованием ссылки прочтите, пожалуйста Пользовательское соглашение, а также как можно дольше оставайтесь на раздаче! Для того, чтобы скачать сам торрент-файл (который видит больше источников), а также для того, чтобы поблагодарить релизера, вам необходимо зарегистрироваться. Если регистрироваться лень - вы можете также попробовать скачать релиз по нашим партнерским ссылкам ниже. Кроме того, зарегистрированным пользователям не показывается всплывающая реклама при скачивании.

[underverse.me].t90605.torrent
Трекер: Зарегистрирован   [ 27.10.2017 03:35 ]  

Статус: проверено (by Бишеп at 27.10.2017 03:36)
Поблагодарили: 1 человек
Тип торрента: публичный - доступные источники с открытых трекеров: 
Размер: 293 MB (занимает 0,07 DVDR, для записи нужно 1 болванка DVDR/RW)
 
 

Яндекс.Метрика powered by Sphinx


В Н И М А Н И Е
Сайт не распространяет и не хранит электронные версии произведений, а лишь бесплатно и без коммерческой выгоды (не требуя взамен платы,
SMS и т.д.) предоставляет доступ к создаваемому пользователями каталогу ссылок на торрент-файлы, которые содержат только списки хеш-сумм.
Убедительная просьба с жалобами обращаться напрямую к пользователю, разместившему торрент файл.

Вверх