Loading...
Error

(Industrial Techno) Belief Defect - Decadent Yet Depraved (2017) [FLAC (Tracks+.CUE), lossless]

Статистика раздачи
Размер:  322 MB   |    Зарегистрирован:  1 год   |    Скачан:  4 раза

Полного источника не было: 8 дней

Сидов:  0  |  0 KB/s  ]   Личеров:  0  |  0 KB/s  ]

* - сиды/пиры с внешних источников

   
 
Автор Сообщение

Darkferse Пол:Жен

10-Сен-2017 09:21

Belief Defect - Decadent Yet Depraved

Жанр: Industrial Techno
Год выпуска: 2017
Источник: CD
Производитель: Raster-Noton - RM 178
Аудиокодек: FLAC
Тип рипа: Tracks+.CUE
Битрейт: lossless
Продолжительность: 00:53:42

Треклист:

1 Unnatural Instinct 5:28
2 The Conduit 3:50
3 Submission Of Thought 5:48
4 Slipping Away 6:04
5 No Future 5:23
6 Opium Den 5:13
7 Deliverance 5:44
8 Fake Disciples 4:53
9 No Hope No Fear 4:02
10 Disembarking Horizons 7:13
Exact Audio Copy V1.3 from 2. September 2016

EAC extraction logfile from 21. August 2017, 2:56

Belief Defect / decadent yet depraved

Used drive : HL-DT-STDVDRAM AP70NS50 Adapter: 1 ID: 0

Read mode : Secure
Utilize accurate stream : Yes
Defeat audio cache : Yes
Make use of C2 pointers : No

Read offset correction : 6
Overread into Lead-In and Lead-Out : No
Fill up missing offset samples with silence : Yes
Delete leading and trailing silent blocks : No
Null samples used in CRC calculations : Yes
Used interface : Native Win32 interface for Win NT & 2000
Gap handling : Appended to previous track

Used output format : User Defined Encoder
Selected bitrate : 1024 kBit/s
Quality : High
Add ID3 tag : No
Command line compressor : C:\Program Files (x86)\Exact Audio Copy\Flac\flac.exe
Additional command line options : -8 -e -V -T "ARTIST=%artist%" -T "TITLE=%title%" -T "ALBUM=%albumtitle%" -T "DATE=%year%" -T "TRACKNUMBER=%tracknr%" -T "GENRE=%genre%" -T "PERFORMER=%albuminterpret%" -T "COMPOSER=%composer%" %haslyrics%--tag-from-file=LYRICS="%lyricsfile%"%haslyrics% -T "ALBUMARTIST=%albumartist%" -T "DISCNUMBER=%cdnumber%" -T "TOTALDISCS=%totalcds%" -T "TOTALTRACKS=%numtracks%" -T "COMMENT=%comment%" %source% -o %dest%

TOC of the extracted CD

Track | Start | Length | Start sector | End sector
---------------------------------------------------------
1 | 0:00.00 | 5:28.73 | 0 | 24672
2 | 5:28.73 | 3:50.74 | 24673 | 41996
3 | 9:19.72 | 5:48.01 | 41997 | 68097
4 | 15:07.73 | 6:04.73 | 68098 | 95470
5 | 21:12.71 | 5:23.00 | 95471 | 119695
6 | 26:35.71 | 5:13.33 | 119696 | 143203
7 | 31:49.29 | 5:44.13 | 143204 | 169016
8 | 37:33.42 | 4:53.54 | 169017 | 191045
9 | 42:27.21 | 4:02.00 | 191046 | 209195
10 | 46:29.21 | 7:13.51 | 209196 | 241721

Track 1

Filename C:\Belief Defect - 2017 - decadent yet depraved\01 - Unnatural Instinct.wav

Pre-gap length 0:00:02.00

Peak level 100.0 %
Extraction speed 1.0 X
Track quality 99.9 %
Test CRC 2807FE28
Copy CRC 2807FE28
Track not present in AccurateRip database
Copy OK

Track 2

Filename C:\Belief Defect - 2017 - decadent yet depraved\02 - The Conduit.wav

Peak level 99.7 %
Extraction speed 1.2 X
Track quality 100.0 %
Test CRC FEC89556
Copy CRC FEC89556
Track not present in AccurateRip database
Copy OK

Track 3

Filename C:\Belief Defect - 2017 - decadent yet depraved\03 - Submission of Thought.wav

Peak level 99.7 %
Extraction speed 1.5 X
Track quality 100.0 %
Test CRC 67EA6D12
Copy CRC 67EA6D12
Track not present in AccurateRip database
Copy OK

Track 4

Filename C:\Belief Defect - 2017 - decadent yet depraved\04 - Slipping Away.wav

Peak level 99.7 %
Extraction speed 1.6 X
Track quality 100.0 %
Test CRC 0D609CF6
Copy CRC 0D609CF6
Track not present in AccurateRip database
Copy OK

Track 5

Filename C:\Belief Defect - 2017 - decadent yet depraved\05 - No Future.wav

Peak level 99.7 %
Extraction speed 1.6 X
Track quality 99.9 %
Test CRC 2AD1425B
Copy CRC 2AD1425B
Track not present in AccurateRip database
Copy OK

Track 6

Filename C:\Belief Defect - 2017 - decadent yet depraved\06 - Opium Den.wav

Peak level 99.7 %
Extraction speed 1.8 X
Track quality 100.0 %
Test CRC 6F26205C
Copy CRC 6F26205C
Track not present in AccurateRip database
Copy OK

Track 7

Filename C:\Belief Defect - 2017 - decadent yet depraved\07 - Deliverance.wav

Peak level 99.7 %
Extraction speed 1.9 X
Track quality 100.0 %
Test CRC 46071D13
Copy CRC 46071D13
Track not present in AccurateRip database
Copy OK

Track 8

Filename C:\Belief Defect - 2017 - decadent yet depraved\08 - Fake Disciples.wav

Peak level 100.0 %
Extraction speed 2.0 X
Track quality 100.0 %
Test CRC BAB6CAC2
Copy CRC BAB6CAC2
Track not present in AccurateRip database
Copy OK

Track 9

Filename C:\Belief Defect - 2017 - decadent yet depraved\09 - No Hope No Fear.wav

Peak level 99.7 %
Extraction speed 1.8 X
Track quality 99.9 %
Test CRC 67773D01
Copy CRC 67773D01
Track not present in AccurateRip database
Copy OK

Track 10

Filename C:\Belief Defect - 2017 - decadent yet depraved\10 - Disembarking Horizons.wav

Peak level 99.6 %
Extraction speed 2.3 X
Track quality 100.0 %
Test CRC 4449472D
Copy CRC 4449472D
Track not present in AccurateRip database
Copy OK

None of the tracks are present in the AccurateRip database

No errors occurred

End of status report

---- CUETools DB Plugin V2.1.6

[CTDB TOCID: wGXzdKHaK10ZpSntefpqYCQ8.ag-] found
Submit result: wGXzdKHaK10ZpSntefpqYCQ8.ag- has been confirmed
Track | CTDB Status
1 | (1/1) Accurately ripped
2 | (1/1) Accurately ripped
3 | (1/1) Accurately ripped
4 | (1/1) Accurately ripped
5 | (1/1) Accurately ripped
6 | (1/1) Accurately ripped
7 | (1/1) Accurately ripped
8 | (1/1) Accurately ripped
9 | (1/1) Accurately ripped
10 | (1/1) Accurately ripped

==== Log checksum 520A5A1E100209AE1A387446E5BE448A0CC2AFC266EAA97500495255A78C60C2 ====
REM DATE 2017
REM DISCID 8B0C960A
REM COMMENT "ExactAudioCopy v1.3"
PERFORMER "Belief Defect"
TITLE "decadent yet depraved"
REM COMPOSER ""
FILE "01 - Unnatural Instinct.wav" WAVE
TRACK 01 AUDIO
TITLE "Unnatural Instinct"
PERFORMER "Belief Defect"
REM COMPOSER ""
ISRC DEAS91700020
INDEX 01 00:00:00
FILE "02 - The Conduit.wav" WAVE
TRACK 02 AUDIO
TITLE "The Conduit"
PERFORMER "Belief Defect"
REM COMPOSER ""
ISRC DEAS91700021
INDEX 01 00:00:00
FILE "03 - Submission of Thought.wav" WAVE
TRACK 03 AUDIO
TITLE "Submission of Thought"
PERFORMER "Belief Defect"
REM COMPOSER ""
ISRC DEAS91700022
INDEX 01 00:00:00
FILE "04 - Slipping Away.wav" WAVE
TRACK 04 AUDIO
TITLE "Slipping Away"
PERFORMER "Belief Defect"
REM COMPOSER ""
ISRC DEAS91700023
INDEX 01 00:00:00
FILE "05 - No Future.wav" WAVE
TRACK 05 AUDIO
TITLE "No Future"
PERFORMER "Belief Defect"
REM COMPOSER ""
ISRC DEAS91700024
INDEX 01 00:00:00
FILE "06 - Opium Den.wav" WAVE
TRACK 06 AUDIO
TITLE "Opium Den"
PERFORMER "Belief Defect"
REM COMPOSER ""
ISRC DEAS91700025
INDEX 01 00:00:00
FILE "07 - Deliverance.wav" WAVE
TRACK 07 AUDIO
TITLE "Deliverance"
PERFORMER "Belief Defect"
REM COMPOSER ""
ISRC DEAS91700025
INDEX 01 00:00:00
FILE "08 - Fake Disciples.wav" WAVE
TRACK 08 AUDIO
TITLE "Fake Disciples"
PERFORMER "Belief Defect"
REM COMPOSER ""
ISRC DEAS91700026
INDEX 01 00:00:00
FILE "09 - No Hope No Fear.wav" WAVE
TRACK 09 AUDIO
TITLE "No Hope No Fear"
PERFORMER "Belief Defect"
REM COMPOSER ""
ISRC DEAS91700028
INDEX 01 00:00:00
FILE "10 - Disembarking Horizons.wav" WAVE
TRACK 10 AUDIO
TITLE "Disembarking Horizons"
PERFORMER "Belief Defect"
REM COMPOSER ""
ISRC DEAS91700029
INDEX 01 00:00:00

Этот торрент недоступен для скачивания без регистрации, однако доступен по публичной magnet-ссылке (источники с публичных трекеров). Перед использованием ссылки прочтите, пожалуйста Пользовательское соглашение, а также как можно дольше оставайтесь на раздаче! Для того, чтобы скачать сам торрент-файл (который видит больше источников), а также для того, чтобы поблагодарить релизера, вам необходимо зарегистрироваться. Если регистрироваться лень - вы можете также попробовать скачать релиз по нашим партнерским ссылкам ниже. Кроме того, зарегистрированным пользователям не показывается всплывающая реклама при скачивании.

[underverse.me].t88523.torrent
Трекер: Зарегистрирован   [ 10.09.2017 09:21 ]  

Статус: проверено (by Darkferse at 10.09.2017 09:22)
Поблагодарили: пока никто не поблагодарил...
Тип торрента: публичный - доступные источники с открытых трекеров: 
Размер: 322 MB (занимает 0,07 DVDR, для записи нужно 1 болванка DVDR/RW)
 
 
Похожие темы
Форум Тема Автор Торрент Отв. Посл. сооб.
Зарубежный Hard, Progressive, Soft, Melodic, AOR, Folk, Classic Rock (Industrial Rock) Devil-M - Hollow Earth (2017) [MP3, 320 kbps] ANDRAKO
7 | 1

0 | 716

4

29.01.2017 10:47

Зарубежный Black, Death, Heavy, Thrash, Power, Folk, Gothic Metal (Industrial, Metall) Rammstein - Greatest Hits (2008) [MP3, 320 kbps] M-i-i-i-ke
30 | 3

1 | 3118

27

20.05.2013 14:28

Зарубежный Black, Death, Heavy, Thrash, Power, Folk, Gothic Metal (Industrial Metal) Deathstars - Discography (2003-2010) [MP3, 320 kbps] Jimmy
0 | 0

0 | 1664

7

22.02.2012 11:59

Зарубежный Black, Death, Heavy, Thrash, Power, Folk, Gothic Metal (Industrial Gothic Metal) Omega Lithium - Дискография (2007 - 2011) [MP3, 192, 320 kbps] Jimmy
0 | 1

2 | 4331

10

12.03.2012 18:15

Зарубежный Black, Death, Heavy, Thrash, Power, Folk, Gothic Metal (Industrial Metal) Rammstein - Mein Herz Brennt (2012) [MP3, 320 kbps CBR] Jimmy
3 | 0

0 | 498

12

05.04.2017 04:45

Зарубежный Black, Death, Heavy, Thrash, Power, Folk, Gothic Metal (Industrial Metal / Dubstep / Male & Female vocals) Rave The Reqviem - Reqviem V1.0 (EP) (2013) [MP3, 320 kbps CBR] Jimmy
17 | 6

0 | 1717

10

22.02.2013 07:49

Зарубежный Black, Death, Heavy, Thrash, Power, Folk, Gothic Metal (Industrial/Gothic Metal) Artifact - Desolation (2013) [MP3, 320 kbps] Jimmy
1 | 0

0 | 858

7

02.01.2014 07:02

Зарубежный Black, Death, Heavy, Thrash, Power, Folk, Gothic Metal (Industrial Metal) 3teeth - Shutdown.exe (2017) [MP3, 320 kbps CBR] Darkferse
23 | 0

0 | 695

1

22.05.2017 16:32

Зарубежный Black, Death, Heavy, Thrash, Power, Folk, Gothic Metal (Industrial Metal, EBM) Combichrist - This Is Where Death Begins (2016) [MP3, 320 kbps] ANDRAKO
7 | 2

0 | 980

6

30.12.2016 12:33

Зарубежный Black, Death, Heavy, Thrash, Power, Folk, Gothic Metal (Industrial Metal, Neue Deutsche Harte, Dark Rock) Erdling - Discography (2015-2017) [MP3, 320 kbps CBR] Darkferse
9 | 4

0 | 802

1

18.05.2017 07:18


Яндекс.Метрика powered by Sphinx


В Н И М А Н И Е
Сайт не распространяет и не хранит электронные версии произведений, а лишь бесплатно и без коммерческой выгоды (не требуя взамен платы,
SMS и т.д.) предоставляет доступ к создаваемому пользователями каталогу ссылок на торрент-файлы, которые содержат только списки хеш-сумм.
Убедительная просьба с жалобами обращаться напрямую к пользователю, разместившему торрент файл.

Вверх