Loading...
Error

Геймер / Gamer (Марк Невелдайн, Брайан Тейлор / Mark Neveldine, Brian Taylor) [2009 г., фантастика, боевик, триллер, BDRip]

Статистика раздачи
Размер:  2,18 GB   |    Зарегистрирован:  6 лет 9 месяцев   |    Скачан:  7 раз

Полного источника не было: 3 года 4 месяца

Сидов:  0  |  0 KB/s  ]   Личеров:  0  |  0 KB/s  ]

* - сиды/пиры с внешних источников

   
 
Автор Сообщение

GUree Пол:Муж

27-Ноя-2009 22:03

Геймер / Gamer


Год выпуска: 2009
Жанр: фантастика, боевик, триллер
Страна: США
Режиссер: Марк Невелдайн, Брайан Тейлор / Mark Neveldine, Brian Taylor
В ролях: Джерард Батлер, Элисон Ломан, Майло Вентимилья, Майкл С. Холл, Джон Легуизамо, Логан Лерман, Терри Крюс, Кит Дэвид, Эмбер Валлетта, Эфрен Рамирез, Кейт Джардин, Майкл Уэстон, Джонни Витуорт, Джозеф Д. Рейтман, Джон Де Ланси, Майло Вентимилья, Зои Белл, Джон Легуизамо, Ноэль Гульеми, Джарвис В. Джордж, Джей Стефан, Генри Хаяши, Дилан Кенин, Кит Дэвид, Мэгги Лоусон, Джеймс Родэй

Сюжет фильма: Действие фильма происходит в недалёком утопическом будущем, где высочайшее развитие нанотехнологий позволило технологическому гению Кену Кастлу соединить видеоигру с реалити-шоу и смоделировать ультрафункциональную, мультиплеерную игру «Убийцы», которая стала средой обитания местных преступников. Джон Тиллман, приговоренный к пожизненному заключению за преступление, которого не совершал, должен принять участие в Игре, чтобы получить свободу. Для одного богатого молодого игрока Джон Тиллман это — Кэйбл, всего лишь сим, управляемый персонаж игры. Благодаря своим боевым способностям и физической силе, Кэйбл становится национальным героем и занимает первые позиции в игре. Каждую неделю миллионы людей во всём мире в режиме онлайн следят за ним и сотней других смертников, которые участвуют в битвах игры. По мнению группы мятежников, которая противостоит Кастлу, его игра — это высокотехнологичное рабство, а он является тем критическим элементом, который необходимо уничтожить. Кэйбл/Тиллман оказался между двумя мощными противоборствующими силами, которые не заинтересованы, чтобы он выжил. С каждым шагом, за которым наблюдают миллионы, Джон Тилман сражается, чтобы получить свободу, восстановить свою личность и низвергнуть систему, которая его заключила в тюрьму.

  • Мировая премьера: 3 сентября 2009
  • Российская премьера: 9 сентября 2009, «West»




Личная оценка: 10 - всем советую

Качество видео: BDRip

Продолжительность: 01:35:09
Видео: кодек: x264, формат: mkv, размер кадра: 1024x544, битрейт: 2324 kbps
Аудио #1: язык: русский, перевод: многоголосый закадровый, кодек: AC3 5.1, битрейт: 448 kbps
Аудио #2: язык: английский, перевод: оригинал, кодек: AC3 5.1, битрейт: 448 kbps
Субтитры #1: тип: вшитые отключаемые, язык: русский, формат: S_TEXT/UTF8
Субтитры #2: тип: вшитые отключаемые, язык: английский, формат: S_TEXT/UTF8

Семпл 1 на multi-up; Семпл 1 на dump
Семпл 2 на multi-up; Семпл 2 на dump






General
Complete name : Gamer.2009.BDRip.AVC.mkv
Format : Matroska
File size : 2.18 GiB
Duration : 1h 35mn
Overall bit rate : 3 286 Kbps
Movie name : -=GUree=-
Encoded date : UTC 2010-02-10 16:51:53
Writing application : mkvmerge v2.9.9 ('Tutu') built on Nov 25 2009 21:13:32
Writing library : libebml v0.7.9 + libmatroska v0.8.1

Video
ID : 1
Format : AVC
Format/Info : Advanced Video Codec
Format profile : High@L4.1
Format settings, CABAC : Yes
Format settings, ReFrames : 8 frames
Muxing mode : Container profile=Unknown@4.1
Codec ID : V_MPEG4/ISO/AVC
Duration : 1h 35mn
Bit rate : 2 324 Kbps
Nominal bit rate : 2 402 Kbps
Width : 1 024 pixels
Height : 544 pixels
Display aspect ratio : 1.882
Frame rate : 24.000 fps
Resolution : 8 bits
Colorimetry : 4:2:0
Scan type : Progressive
Bits/(Pixel*Frame) : 0.174
Stream size : 1.54 GiB (71%)
Writing library : x264 core 79 r1342kMod e8501ef
Encoding settings : cabac=1 / ref=8 / deblock=1:-2:-1 / analyse=0x3:0x113 / me=tesa / subme=10 / psy=1 / psy_rd=1.0:0.4 / mixed_ref=1 / me_range=32 / chroma_me=1 / trellis=2 / 8x8dct=1 / cqm=0 / deadzone=21,11 / chroma_qp_offset=-4 / threads=6 / nr=0 / decimate=0 / mbaff=0 / constrained_intra=0 / bframes=6 / b_pyramid=0 / b_adapt=2 / b_bias=0 / direct=3 / wpredb=1 / wpredp=2 / keyint=250 / keyint_min=25 / scenecut=40 / rc_lookahead=60 / rc=2pass / mbtree=1 / bitrate=2402 / ratetol=1.0 / qcomp=0.60 / qpmin=10 / qpmax=51 / qpstep=4 / cplxblur=20.0 / qblur=0.5 / vbv_maxrate=50000 / vbv_bufsize=50000 / ip_ratio=1.40 / aq=1:1.00
Language : English

Audio #1
ID : 2
Format : AC-3
Format/Info : Audio Coding 3
Codec ID : A_AC3
Duration : 1h 35mn
Bit rate mode : Constant
Bit rate : 448 Kbps
Channel(s) : 6 channels
Channel positions : Front: L C R, Surround: L R, LFE
Sampling rate : 48.0 KHz
Stream size : 305 MiB (14%)
Title : AC3 5.1 448Kb/s
Language : Russian

Audio #2
ID : 3
Format : AC-3
Format/Info : Audio Coding 3
Codec ID : A_AC3
Duration : 1h 35mn
Bit rate mode : Constant
Bit rate : 448 Kbps
Channel(s) : 6 channels
Channel positions : Front: L C R, Surround: L R, LFE
Sampling rate : 48.0 KHz
Stream size : 305 MiB (14%)
Title : AC3 5.1 448Kb/s
Language : English

Text #1
ID : 4
Format : UTF-8
Codec ID : S_TEXT/UTF8
Codec ID/Info : UTF-8 Plain Text
Language : Russian

Text #2
ID : 5
Format : UTF-8
Codec ID : S_TEXT/UTF8
Codec ID/Info : UTF-8 Plain Text
Language : English

Этот торрент недоступен для скачивания без регистрации, однако доступен по публичной magnet-ссылке (источники с публичных трекеров). Перед использованием ссылки прочтите, пожалуйста Пользовательское соглашение, а также как можно дольше оставайтесь на раздаче! Для того, чтобы скачать сам торрент-файл (который видит больше источников), а также для того, чтобы поблагодарить релизера, вам необходимо зарегистрироваться. Если регистрироваться лень - вы можете также попробовать скачать релиз по нашим партнерским ссылкам ниже.

[underverse.su].t7615.torrent
Трекер: Зарегистрирован   [ 10.02.2010 20:58 ]  

Статус: проверено (by GUree at 10.02.2010 21:11)
Поблагодарили: пока никто не поблагодарил...
Тип торрента: публичный - доступные источники с открытых трекеров: 
Размер: 2,18 GB (занимает 1/2 DVDR, для записи нужно 1 болванка DVDR/RW)
 
 
Похожие темы
Форум Тема Автор Торрент Отв. Посл. сооб.
Архив Геймер / Gamer / 2009 / DVDRip (Марк Невелдайн, Брайан Тейлор) [ г., фантастика, DVDRip] niif111
0 | 0

5 | 1226

27

17.02.2011 14:46

Архив Геймер / Gamer ( Марк Невелдайн, Брайан Тейлор / Mark Neveldine, Brian Taylor) [2009 г., Фантастика, Боевик, Триллер, DVD-5] andrej-ku
0 | 0

1 | 558

0

17.02.2011 14:46



Последний раз редактировалось: GUree (10.02.2010 23:12), всего редактировалось 4 раз(а)

GUree Пол:Муж

10-Фев-2010 21:07

Поменял Рип :wink:

sexfuck 

21-Май-2011 04:39

клева

Яндекс.Метрика powered by Sphinx


В Н И М А Н И Е
Сайт не распространяет и не хранит электронные версии произведений, а лишь бесплатно и без коммерческой выгоды (не требуя взамен платы,
SMS и т.д.) предоставляет доступ к создаваемому пользователями каталогу ссылок на торрент-файлы, которые содержат только списки хеш-сумм.
Убедительная просьба с жалобами обращаться напрямую к пользователю, разместившему торрент файл.

Вверх