Loading...
Error

(Pop) Марина Журавлёва - Звёздная Коллекция (2002) [FLAC (Image+.CUE), Lossless]

Статистика раздачи
Размер:  538 MB   |    Зарегистрирован:  1 год 5 месяцев   |    Скачан:  10 раз
Сидов:  1  |  0 KB/s  ]   Личеров:  0  |  0 KB/s  ]

* - сиды/пиры с внешних источников

   
 
Автор Сообщение

Бишеп Пол:Муж

26-Июн-2017 05:12

Марина Журавлёва - Звёздная Коллекция

Жанр: Pop
Год выпуска: 2002
Источник: CD
Производитель диска: J.S.P. - 010 264-2
Аудиокодек: FLAC
Тип рипа: Image+.CUE
Битрейт аудио: lossless
Продолжительность: 01:07:17


Треклист:
01. Белая черёмуха
02. На сердце рана у меня
03. Розовый рассвет
04. Счастливый случай
05. Забудь меня, забудь
06. Пусть говорят
07. Калина
08. Я тебя не могу не любить
09. Ничего у нас не выйдет
10. Ты лишь в глаза мои...
11. Поцелуй меня только раз
12. Знаю поздно
13. Моя рука в твоей руке
14. Без тебя
15. Снежинка
16. Третий лишний
17. Прощай, любовь

Код:

Exact Audio Copy V1.3 from 2. September 2016

EAC extraction logfile from 17. June 2017, 15:48

Марина Журавлёва / Звёздная Коллекция

Used drive  : HL-DT-STDVDRAM GH24NSD1   Adapter: 0  ID: 1

Read mode               : Secure
Utilize accurate stream : Yes
Defeat audio cache      : Yes
Make use of C2 pointers : No

Read offset correction                      : 6
Overread into Lead-In and Lead-Out          : No
Fill up missing offset samples with silence : Yes
Delete leading and trailing silent blocks   : No
Null samples used in CRC calculations       : Yes
Used interface                              : Installed external ASPI interface

Used output format              : User Defined Encoder
Selected bitrate                : 1024 kBit/s
Quality                         : High
Add ID3 tag                     : No
Command line compressor         : D:\Program Files\Exact Audio Copy\Flac\flac.exe
Additional command line options : -V -8 -T "Genre=%genre%" -T "Artist=%artist%" -T "Title=%title%" -T "Album=%albumtitle%" -T "Date=%year%" -T "Tracknumber=%tracknr%" -T "Comment=%comment%" %source%

TOC of the extracted CD

     Track |   Start  |  Length  | Start sector | End sector
    ---------------------------------------------------------
        1  |  0:00.00 |  3:47.05 |         0    |    17029   
        2  |  3:47.05 |  4:06.61 |     17030    |    35540   
        3  |  7:53.66 |  3:07.20 |     35541    |    49585   
        4  | 11:01.11 |  2:27.07 |     49586    |    60617   
        5  | 13:28.18 |  3:23.72 |     60618    |    75914   
        6  | 16:52.15 |  4:16.35 |     75915    |    95149   
        7  | 21:08.50 |  4:03.37 |     95150    |   113411   
        8  | 25:12.12 |  3:42.67 |    113412    |   130128   
        9  | 28:55.04 |  3:39.34 |    130129    |   146587   
       10  | 32:34.38 |  4:06.54 |    146588    |   165091   
       11  | 36:41.17 |  5:33.64 |    165092    |   190130   
       12  | 42:15.06 |  5:53.36 |    190131    |   216641   
       13  | 48:08.42 |  4:06.20 |    216642    |   235111   
       14  | 52:14.62 |  5:24.20 |    235112    |   259431   
       15  | 57:39.07 |  3:26.58 |    259432    |   274939   
       16  | 61:05.65 |  3:22.69 |    274940    |   290158   
       17  | 64:28.59 |  2:48.08 |    290159    |   302766   

Range status and errors

Selected range

     Filename D:\Desktop\Марина Журавлёва - Звёздная Коллекция (2002)\Марина Журавлёва - Звёздная Коллекция.wav

     Peak level 98.8 %
     Extraction speed 1.0 X
     Range quality 99.8 %
     Test CRC BB5D2EBE
     Copy CRC BB5D2EBE
     Copy OK

No errors occurred

 
AccurateRip summary
 
Track  1  not present in database
Track  2  not present in database
Track  3  not present in database
Track  4  not present in database
Track  5  not present in database
Track  6  not present in database
Track  7  not present in database
Track  8  not present in database
Track  9  not present in database
Track 10  not present in database
Track 11  not present in database
Track 12  not present in database
Track 13  not present in database
Track 14  not present in database
Track 15  not present in database
Track 16  not present in database
Track 17  not present in database
 
None of the tracks are present in the AccurateRip database

End of status report

==== Log checksum AD26AECBCC507F10E84DB98988E7440510D4D3E623E7541F78EDFAFAC73DF8F3 ====

Код:

REM GENRE Pop
REM DATE 2002
REM DISCID E70FC411
REM COMMENT "ExactAudioCopy v1.3"
PERFORMER "Марина Журавлёва"
TITLE "Звёздная Коллекция"
REM COMPOSER ""
FILE "Марина Журавлёва - Звёздная Коллекция.flac" WAVE
  TRACK 01 AUDIO
    TITLE "Белая черёмуха"
    PERFORMER "Марина Журавлёва"
    REM COMPOSER ""
    INDEX 01 00:00:00
  TRACK 02 AUDIO
    TITLE "На сердце рана у меня"
    PERFORMER "Марина Журавлёва"
    REM COMPOSER ""
    INDEX 01 03:47:05
  TRACK 03 AUDIO
    TITLE "Розовый рассвет"
    PERFORMER "Марина Журавлёва"
    REM COMPOSER ""
    INDEX 01 07:53:66
  TRACK 04 AUDIO
    TITLE "Счастливый случай"
    PERFORMER "Марина Журавлёва"
    REM COMPOSER ""
    INDEX 01 11:01:11
  TRACK 05 AUDIO
    TITLE "Забудь меня, забудь"
    PERFORMER "Марина Журавлёва"
    REM COMPOSER ""
    INDEX 01 13:28:18
  TRACK 06 AUDIO
    TITLE "Пусть говорят"
    PERFORMER "Марина Журавлёва"
    REM COMPOSER ""
    INDEX 01 16:52:15
  TRACK 07 AUDIO
    TITLE "Калина"
    PERFORMER "Марина Журавлёва"
    REM COMPOSER ""
    INDEX 01 21:08:50
  TRACK 08 AUDIO
    TITLE "Я тебя не могу не любить"
    PERFORMER "Марина Журавлёва"
    REM COMPOSER ""
    INDEX 01 25:12:12
  TRACK 09 AUDIO
    TITLE "Ничего у нас не выйдет"
    PERFORMER "Марина Журавлёва"
    REM COMPOSER ""
    INDEX 01 28:55:04
  TRACK 10 AUDIO
    TITLE "Ты лишь в глаза мои..."
    PERFORMER "Марина Журавлёва"
    REM COMPOSER ""
    INDEX 01 32:34:38
  TRACK 11 AUDIO
    TITLE "Поцелуй меня только раз"
    PERFORMER "Марина Журавлёва"
    REM COMPOSER ""
    INDEX 01 36:41:17
  TRACK 12 AUDIO
    TITLE "Знаю поздно"
    PERFORMER "Марина Журавлёва"
    REM COMPOSER ""
    INDEX 01 42:15:06
  TRACK 13 AUDIO
    TITLE "Моя рука в твоей руке"
    PERFORMER "Марина Журавлёва"
    REM COMPOSER ""
    INDEX 01 48:08:42
  TRACK 14 AUDIO
    TITLE "Без тебя"
    PERFORMER "Марина Журавлёва"
    REM COMPOSER ""
    INDEX 01 52:14:62
  TRACK 15 AUDIO
    TITLE "Снежинка"
    PERFORMER "Марина Журавлёва"
    REM COMPOSER ""
    INDEX 01 57:39:07
  TRACK 16 AUDIO
    TITLE "Третий лишний"
    PERFORMER "Марина Журавлёва"
    REM COMPOSER ""
    INDEX 01 61:05:65
  TRACK 17 AUDIO
    TITLE "Прощай, любовь"
    PERFORMER "Марина Журавлёва"
    REM COMPOSER ""
    INDEX 00 64:06:51
    INDEX 01 64:28:59

Этот торрент недоступен для скачивания без регистрации, однако доступен по публичной magnet-ссылке (источники с публичных трекеров). Перед использованием ссылки прочтите, пожалуйста Пользовательское соглашение, а также как можно дольше оставайтесь на раздаче! Для того, чтобы скачать сам торрент-файл (который видит больше источников), а также для того, чтобы поблагодарить релизера, вам необходимо зарегистрироваться. Если регистрироваться лень - вы можете также попробовать скачать релиз по нашим партнерским ссылкам ниже. Кроме того, зарегистрированным пользователям не показывается всплывающая реклама при скачивании.

[underverse.me].t85003.torrent
Трекер: Зарегистрирован   [ 26.06.2017 05:12 ]  

Статус: проверено (by Бишеп at 26.06.2017 05:26)
Поблагодарили: пока никто не поблагодарил...
Тип торрента: публичный - доступные источники с открытых трекеров: 
Размер: 538 MB (занимает 0,12 DVDR, для записи нужно 1 болванка DVDR/RW)
 
 
Похожие темы
Форум Тема Автор Торрент Отв. Посл. сооб.
Отечественная Поп Музыка (Lossless) (Pop) Марина Журавлёва - Пусть говорят (1994) [FLAC (Image+.CUE), Lossless] Бишеп
1 | 0

0 | 1104

11

19.07.2012 04:48

Отечественная Поп Музыка (Lossless) (Pop) Марина Журавлёва - Поцелуй меня только раз (1994) [FLAC (Image+.CUE), Lossless] Бишеп
1 | 0

0 | 1100

10

20.07.2012 08:19

Отечественная Поп Музыка (Lossless) (Pop) Марина Журавлева - Перелётные птицы (2013) [FLAC (Image+.CUE), Lossless] Бишеп
1 | 0

0 | 2038

23

29.11.2013 19:49

Архив (популярная музыка) (Pop) Марина Журавлёва - Коллекция альбомов (1989-2001) [MP3, 256-320 kbps] ZondeR
0 | 0

1 | 2186

23

31.01.2018 19:43


Яндекс.Метрика powered by Sphinx


В Н И М А Н И Е
Сайт не распространяет и не хранит электронные версии произведений, а лишь бесплатно и без коммерческой выгоды (не требуя взамен платы,
SMS и т.д.) предоставляет доступ к создаваемому пользователями каталогу ссылок на торрент-файлы, которые содержат только списки хеш-сумм.
Убедительная просьба с жалобами обращаться напрямую к пользователю, разместившему торрент файл.

Вверх