Loading...
Error

(Pop) Комбинация - Русские девочки (2004) [FLAC (Image+.CUE), Lossless]

Статистика раздачи
Размер:  378 MB   |    Зарегистрирован:  1 год 3 месяца   |    Скачан:  7 раз

Полного источника не было: 5 часов

Сидов:  0  |  0 KB/s  ]   Личеров:  0  |  0 KB/s  ]

* - сиды/пиры с внешних источников

   
 
Автор Сообщение

Бишеп Пол:Муж

20-Июн-2017 16:16

Комбинация - Русские девочки

Жанр: Pop
Год выпуска: 2004
Источник: CD
Производитель диска: JAM - 010 193-2
Аудиокодек: FLAC
Тип рипа: Image+.CUE
Битрейт аудио: lossless
Продолжительность: 00:52:06


Треклист:
01. Пролог (Увертюра)
02. Не забывай
03. Автопортрет (Интермеццо №1)
04. Красное платье
05. Russian girls
06. Уеду в Африку
07. Не грусти
08. Куклы (Интермеццо №2)
09. Байка
10. Хей, мама
11. Вдвоем с тобой
12. Модница
13. Мальчик мой, я не люблю металл
14. Когда в 17-ом году (Интермеццо №3)
15. Эпилог

Код:

Exact Audio Copy V1.3 from 2. September 2016

EAC extraction logfile from 7. April 2017, 21:30

Комбинация / Русские девочки

Used drive  : TSSTcorpCDDVDW SH-224DB   Adapter: 0  ID: 1

Read mode               : Secure
Utilize accurate stream : Yes
Defeat audio cache      : Yes
Make use of C2 pointers : No

Read offset correction                      : 6
Overread into Lead-In and Lead-Out          : No
Fill up missing offset samples with silence : Yes
Delete leading and trailing silent blocks   : No
Null samples used in CRC calculations       : Yes
Used interface                              : Installed external ASPI interface

Used output format              : User Defined Encoder
Selected bitrate                : 1024 kBit/s
Quality                         : High
Add ID3 tag                     : No
Command line compressor         : D:\Program Files\Exact Audio Copy\Flac\flac.exe
Additional command line options : -V -8 -T "Genre=%genre%" -T "Artist=%artist%" -T "Title=%title%" -T "Album=%albumtitle%" -T "Date=%year%" -T "Tracknumber=%tracknr%" -T "Comment=%comment%" %source%

TOC of the extracted CD

     Track |   Start  |  Length  | Start sector | End sector
    ---------------------------------------------------------
        1  |  0:00.00 |  2:45.67 |         0    |    12441   
        2  |  2:45.67 |  3:54.68 |     12442    |    30059   
        3  |  6:40.60 |  0:31.37 |     30060    |    32421   
        4  |  7:12.22 |  4:45.11 |     32422    |    53807   
        5  | 11:57.33 |  4:59.50 |     53808    |    76282   
        6  | 16:57.08 |  7:19.14 |     76283    |   109221   
        7  | 24:16.22 |  4:06.30 |    109222    |   127701   
        8  | 28:22.52 |  1:16.31 |    127702    |   133432   
        9  | 29:39.08 |  3:19.40 |    133433    |   148397   
       10  | 32:58.48 |  3:55.14 |    148398    |   166036   
       11  | 36:53.62 |  4:40.24 |    166037    |   187060   
       12  | 41:34.11 |  4:17.70 |    187061    |   206405   
       13  | 45:52.06 |  2:41.18 |    206406    |   218498   
       14  | 48:33.24 |  1:36.31 |    218499    |   225729   
       15  | 50:09.55 |  1:56.52 |    225730    |   234481   

Range status and errors

Selected range

     Filename D:\Desktop\Комбинация - Русские девочки (2004)\Комбинация - Русские девочки.wav

     Peak level 99.3 %
     Extraction speed 7.3 X
     Range quality 99.9 %
     Test CRC B7E98593
     Copy CRC B7E98593
     Copy OK

No errors occurred

 
AccurateRip summary
 
Track  1  accurately ripped (confidence 4)  [64237A26]  (AR v1)
Track  2  accurately ripped (confidence 4)  [B4D5778F]  (AR v1)
Track  3  accurately ripped (confidence 4)  [AB3BAADA]  (AR v1)
Track  4  accurately ripped (confidence 4)  [E7F14477]  (AR v1)
Track  5  accurately ripped (confidence 4)  [8BB7B273]  (AR v1)
Track  6  accurately ripped (confidence 4)  [76407259]  (AR v1)
Track  7  accurately ripped (confidence 4)  [410323A0]  (AR v1)
Track  8  accurately ripped (confidence 4)  [B8EF0656]  (AR v1)
Track  9  accurately ripped (confidence 4)  [F8A714C9]  (AR v1)
Track 10  accurately ripped (confidence 4)  [C68A95B5]  (AR v1)
Track 11  accurately ripped (confidence 4)  [47117EE6]  (AR v1)
Track 12  accurately ripped (confidence 4)  [243368B0]  (AR v1)
Track 13  accurately ripped (confidence 4)  [8D5ABADA]  (AR v1)
Track 14  accurately ripped (confidence 4)  [D158DE7B]  (AR v1)
Track 15  accurately ripped (confidence 4)  [BB927131]  (AR v1)
 
All tracks accurately ripped

End of status report

==== Log checksum 87E3E29D35BDDDBE13942DE1504729ECCAAD3F331026A5C657F9020A83A15010 ====

Код:

REM GENRE Pop
REM DATE 2004
REM DISCID C50C360F
REM COMMENT "ExactAudioCopy v1.3"
PERFORMER "Комбинация"
TITLE "Русские девочки"
REM COMPOSER ""
FILE "Комбинация - Русские девочки.flac" WAVE
  TRACK 01 AUDIO
    TITLE "Пролог (Увертюра)"
    PERFORMER "Комбинация"
    REM COMPOSER ""
    INDEX 01 00:00:00
  TRACK 02 AUDIO
    TITLE "Не забывай"
    PERFORMER "Комбинация"
    REM COMPOSER ""
    INDEX 01 02:45:67
  TRACK 03 AUDIO
    TITLE "Автопортрет (Интермеццо №1)"
    PERFORMER "Комбинация"
    REM COMPOSER ""
    INDEX 01 06:40:60
  TRACK 04 AUDIO
    TITLE "Красное платье"
    PERFORMER "Комбинация"
    REM COMPOSER ""
    INDEX 01 07:12:22
  TRACK 05 AUDIO
    TITLE "Russian girls"
    PERFORMER "Комбинация"
    REM COMPOSER ""
    INDEX 01 11:57:33
  TRACK 06 AUDIO
    TITLE "Уеду в Африку"
    PERFORMER "Комбинация"
    REM COMPOSER ""
    INDEX 01 16:57:08
  TRACK 07 AUDIO
    TITLE "Не грусти"
    PERFORMER "Комбинация"
    REM COMPOSER ""
    INDEX 01 24:16:22
  TRACK 08 AUDIO
    TITLE "Куклы (Интермеццо №2)"
    PERFORMER "Комбинация"
    REM COMPOSER ""
    INDEX 01 28:22:52
  TRACK 09 AUDIO
    TITLE "Байка"
    PERFORMER "Комбинация"
    REM COMPOSER ""
    INDEX 01 29:39:08
  TRACK 10 AUDIO
    TITLE "Хей, мама"
    PERFORMER "Комбинация"
    REM COMPOSER ""
    INDEX 01 32:58:48
  TRACK 11 AUDIO
    TITLE "Вдвоем с тобой"
    PERFORMER "Комбинация"
    REM COMPOSER ""
    INDEX 01 36:53:62
  TRACK 12 AUDIO
    TITLE "Модница"
    PERFORMER "Комбинация"
    REM COMPOSER ""
    INDEX 01 41:34:11
  TRACK 13 AUDIO
    TITLE "Мальчик мой, я не люблю металл"
    PERFORMER "Комбинация"
    REM COMPOSER ""
    INDEX 01 45:52:06
  TRACK 14 AUDIO
    TITLE "Когда в 17-ом году (Интермеццо №3)"
    PERFORMER "Комбинация"
    REM COMPOSER ""
    INDEX 01 48:33:24
  TRACK 15 AUDIO
    TITLE "Эпилог"
    PERFORMER "Комбинация"
    REM COMPOSER ""
    INDEX 01 50:09:55

Этот торрент недоступен для скачивания без регистрации, однако доступен по публичной magnet-ссылке (источники с публичных трекеров). Перед использованием ссылки прочтите, пожалуйста Пользовательское соглашение, а также как можно дольше оставайтесь на раздаче! Для того, чтобы скачать сам торрент-файл (который видит больше источников), а также для того, чтобы поблагодарить релизера, вам необходимо зарегистрироваться. Если регистрироваться лень - вы можете также попробовать скачать релиз по нашим партнерским ссылкам ниже. Кроме того, зарегистрированным пользователям не показывается всплывающая реклама при скачивании.

[underverse.me].t84660.torrent
Трекер: Зарегистрирован   [ 20.06.2017 16:16 ]  

Статус: проверено (by Бишеп at 20.06.2017 16:18)
Поблагодарили: пока никто не поблагодарил...
Тип торрента: публичный - доступные источники с открытых трекеров: 
Размер: 378 MB (занимает 0,08 DVDR, для записи нужно 1 болванка DVDR/RW)
 
 
Похожие темы
Форум Тема Автор Торрент Отв. Посл. сооб.
Отечественная Поп Музыка (Lossless) (Pop) Комбинация - Легендарные Песни (2004) [FLAC (Image+.CUE), Lossless] Бишеп
0 | 0

0 | 2073

6

21.11.2012 16:41

Отечественная Поп Музыка (Lossless) (Pop) Комбинация - Звезды российской эстрады (2002) [FLAC (Image+.CUE), Lossless] Бишеп
1 | 0

0 | 1647

24

20.05.2013 15:15

Отечественная Поп Музыка (Lossless) (Pop) Комбинация - Московская прописка (2004) [FLAC (Image+.CUE), Lossless] Бишеп
0 | 0

0 | 184

6

05.07.2018 08:52


Яндекс.Метрика powered by Sphinx


В Н И М А Н И Е
Сайт не распространяет и не хранит электронные версии произведений, а лишь бесплатно и без коммерческой выгоды (не требуя взамен платы,
SMS и т.д.) предоставляет доступ к создаваемому пользователями каталогу ссылок на торрент-файлы, которые содержат только списки хеш-сумм.
Убедительная просьба с жалобами обращаться напрямую к пользователю, разместившему торрент файл.

Вверх