Loading...
Error

(Шансон) Александр Новиков - Шансонье (Легенды жанра) (2001) [FLAC (Image+.CUE), Lossless]

Статистика раздачи
Размер:  517 MB   |    Зарегистрирован:  1 год   |    Скачан:  2 раза
Сидов:  1  |  0 KB/s  ]   Личеров:  0  |  0 KB/s  ]

* - сиды/пиры с внешних источников

   
 
Автор Сообщение

Бишеп Пол:Муж

20-Июн-2017 05:46

Александр Новиков - Шансонье (Легенды жанра)

Жанр: Шансон
Год выпуска: 2001
Источник: CD
Производитель диска: Классик Компани - CC CD068/01
Аудиокодек: FLAC
Тип рипа: Image+.CUE
Битрейт аудио: lossless
Продолжительность: 01:16:37


Треклист:
01. Вези меня, извозчик
02. Бурлак
03. С красавицей в обнимку
04. Когда мне было 20 лет
05. Уличная красотка
06. Шансоньетка
07. Воробьи
08. Записки
09. Красивоглазая
10. Катька
11. Воровать не наживать
12. На прощанье
13. Ваня, Ваня...
14. Екатеринблюз
15. Катилась по асфальту
16. Шансонье
17. Помнишь, девочка?...
18. Улица Восточная
19. Город древний

Код:

Exact Audio Copy V1.3 from 2. September 2016

EAC extraction logfile from 17. June 2017, 23:46

Александр Новиков / Шансонье (Легенды жанра)

Used drive  : HL-DT-STDVDRAM GH24NSD1   Adapter: 0  ID: 1

Read mode               : Secure
Utilize accurate stream : Yes
Defeat audio cache      : Yes
Make use of C2 pointers : No

Read offset correction                      : 6
Overread into Lead-In and Lead-Out          : No
Fill up missing offset samples with silence : Yes
Delete leading and trailing silent blocks   : No
Null samples used in CRC calculations       : Yes
Used interface                              : Installed external ASPI interface

Used output format              : User Defined Encoder
Selected bitrate                : 1024 kBit/s
Quality                         : High
Add ID3 tag                     : No
Command line compressor         : D:\Program Files\Exact Audio Copy\Flac\flac.exe
Additional command line options : -V -8 -T "Genre=%genre%" -T "Artist=%artist%" -T "Title=%title%" -T "Album=%albumtitle%" -T "Date=%year%" -T "Tracknumber=%tracknr%" -T "Comment=%comment%" %source%

TOC of the extracted CD

     Track |   Start  |  Length  | Start sector | End sector
    ---------------------------------------------------------
        1  |  0:00.00 |  5:06.24 |         0    |    22973   
        2  |  5:06.24 |  3:28.37 |     22974    |    38610   
        3  |  8:34.61 |  2:35.48 |     38611    |    50283   
        4  | 11:10.34 |  4:08.29 |     50284    |    68912   
        5  | 15:18.63 |  3:43.23 |     68913    |    85660   
        6  | 19:02.11 |  4:29.50 |     85661    |   105885   
        7  | 23:31.61 |  4:07.68 |    105886    |   124478   
        8  | 27:39.54 |  3:33.26 |    124479    |   140479   
        9  | 31:13.05 |  4:01.20 |    140480    |   158574   
       10  | 35:14.25 |  3:05.23 |    158575    |   172472   
       11  | 38:19.48 |  4:11.70 |    172473    |   191367   
       12  | 42:31.43 |  4:16.03 |    191368    |   210570   
       13  | 46:47.46 |  2:31.59 |    210571    |   221954   
       14  | 49:19.30 |  5:29.04 |    221955    |   246633   
       15  | 54:48.34 |  5:06.19 |    246634    |   269602   
       16  | 59:54.53 |  3:24.08 |    269603    |   284910   
       17  | 63:18.61 |  3:48.23 |    284911    |   302033   
       18  | 67:07.09 |  5:19.06 |    302034    |   325964   
       19  | 72:26.15 |  4:10.73 |    325965    |   344787   

Range status and errors

Selected range

     Filename D:\Desktop\Александр Новиков - Шансонье (Легенды жанра) (2001)\Александр Новиков - Шансонье (Легенды жанра).wav

     Peak level 89.8 %
     Extraction speed 2.1 X
     Range quality 99.9 %
     Test CRC 80070E4F
     Copy CRC 80070E4F
     Copy OK

No errors occurred

 
AccurateRip summary
 
Track  1  not present in database
Track  2  not present in database
Track  3  not present in database
Track  4  not present in database
Track  5  not present in database
Track  6  not present in database
Track  7  not present in database
Track  8  not present in database
Track  9  not present in database
Track 10  not present in database
Track 11  not present in database
Track 12  not present in database
Track 13  not present in database
Track 14  not present in database
Track 15  not present in database
Track 16  not present in database
Track 17  not present in database
Track 18  not present in database
Track 19  not present in database
 
None of the tracks are present in the AccurateRip database

End of status report

==== Log checksum 88F5F943B6BA95D807C4ECEDF3ED15B1D04B20A63E2D442E238B5A5865E8ACBD ====

Код:

REM GENRE Chanson
REM DATE 2001
REM DISCID 0011F513
REM COMMENT "ExactAudioCopy v1.3"
PERFORMER "Александр Новиков"
TITLE "Шансонье (Легенды жанра)"
REM COMPOSER ""
FILE "Александр Новиков - Шансонье (Легенды жанра).flac" WAVE
  TRACK 01 AUDIO
    TITLE "Вези меня, извозчик"
    PERFORMER "Александр Новиков"
    REM COMPOSER ""
    INDEX 01 00:00:00
  TRACK 02 AUDIO
    TITLE "Бурлак"
    PERFORMER "Александр Новиков"
    REM COMPOSER ""
    INDEX 00 05:04:25
    INDEX 01 05:06:24
  TRACK 03 AUDIO
    TITLE "С красавицей в обнимку"
    PERFORMER "Александр Новиков"
    REM COMPOSER ""
    INDEX 00 08:32:59
    INDEX 01 08:34:61
  TRACK 04 AUDIO
    TITLE "Когда мне было 20 лет"
    PERFORMER "Александр Новиков"
    REM COMPOSER ""
    INDEX 00 11:08:32
    INDEX 01 11:10:34
  TRACK 05 AUDIO
    TITLE "Уличная красотка"
    PERFORMER "Александр Новиков"
    REM COMPOSER ""
    INDEX 00 15:16:62
    INDEX 01 15:18:63
  TRACK 06 AUDIO
    TITLE "Шансоньетка"
    PERFORMER "Александр Новиков"
    REM COMPOSER ""
    INDEX 00 19:00:09
    INDEX 01 19:02:11
  TRACK 07 AUDIO
    TITLE "Воробьи"
    PERFORMER "Александр Новиков"
    REM COMPOSER ""
    INDEX 00 23:29:61
    INDEX 01 23:31:61
  TRACK 08 AUDIO
    TITLE "Записки"
    PERFORMER "Александр Новиков"
    REM COMPOSER ""
    INDEX 00 27:37:54
    INDEX 01 27:39:54
  TRACK 09 AUDIO
    TITLE "Красивоглазая"
    PERFORMER "Александр Новиков"
    REM COMPOSER ""
    INDEX 00 31:11:05
    INDEX 01 31:13:05
  TRACK 10 AUDIO
    TITLE "Катька"
    PERFORMER "Александр Новиков"
    REM COMPOSER ""
    INDEX 00 35:12:27
    INDEX 01 35:14:25
  TRACK 11 AUDIO
    TITLE "Воровать не наживать"
    PERFORMER "Александр Новиков"
    REM COMPOSER ""
    INDEX 00 38:17:47
    INDEX 01 38:19:48
  TRACK 12 AUDIO
    TITLE "На прощанье"
    PERFORMER "Александр Новиков"
    REM COMPOSER ""
    INDEX 00 42:29:44
    INDEX 01 42:31:43
  TRACK 13 AUDIO
    TITLE "Ваня, Ваня..."
    PERFORMER "Александр Новиков"
    REM COMPOSER ""
    INDEX 00 46:45:45
    INDEX 01 46:47:46
  TRACK 14 AUDIO
    TITLE "Екатеринблюз"
    PERFORMER "Александр Новиков"
    REM COMPOSER ""
    INDEX 00 49:17:38
    INDEX 01 49:19:30
  TRACK 15 AUDIO
    TITLE "Катилась по асфальту"
    PERFORMER "Александр Новиков"
    REM COMPOSER ""
    INDEX 00 54:46:39
    INDEX 01 54:48:34
  TRACK 16 AUDIO
    TITLE "Шансонье"
    PERFORMER "Александр Новиков"
    REM COMPOSER ""
    INDEX 00 59:52:61
    INDEX 01 59:54:53
  TRACK 17 AUDIO
    TITLE "Помнишь, девочка?..."
    PERFORMER "Александр Новиков"
    REM COMPOSER ""
    INDEX 00 63:16:61
    INDEX 01 63:18:61
  TRACK 18 AUDIO
    TITLE "Улица Восточная"
    PERFORMER "Александр Новиков"
    REM COMPOSER ""
    INDEX 00 67:05:10
    INDEX 01 67:07:09
  TRACK 19 AUDIO
    TITLE "Город древний"
    PERFORMER "Александр Новиков"
    REM COMPOSER ""
    INDEX 00 72:24:15
    INDEX 01 72:26:15

Код:

-----------------------

DON'T MODIFY THIS FILE

-----------------------

PERFORMER: auCDtect Task Manager, ver. 1.6.0 RC1 build 1.6.0.1
Copyright (c) 2008-2010 y-soft. All rights reserved
http://y-soft.org

ANALYZER: auCDtect: CD records authenticity detector, version 0.8.2
Copyright (c) 2004 Oleg Berngardt. All rights reserved.
Copyright (c) 2004 Alexander Djourik. All rights reserved.

FILE: Александр Новиков - Шансонье (Легенды жанра).flac
  Size: 505607519 Hash: E0B0BEF25AA7B0536A8E93A44EA8811D Accuracy: -m8
  Conclusion: CDDA 100%
  Signature: CA868794A7F4BEF026D2FCE5D636914BF3CE15A4

Этот торрент недоступен для скачивания без регистрации, однако доступен по публичной magnet-ссылке (источники с публичных трекеров). Перед использованием ссылки прочтите, пожалуйста Пользовательское соглашение, а также как можно дольше оставайтесь на раздаче! Для того, чтобы скачать сам торрент-файл (который видит больше источников), а также для того, чтобы поблагодарить релизера, вам необходимо зарегистрироваться. Если регистрироваться лень - вы можете также попробовать скачать релиз по нашим партнерским ссылкам ниже. Кроме того, зарегистрированным пользователям не показывается всплывающая реклама при скачивании.

[underverse.me].t84632.torrent
Трекер: Зарегистрирован   [ 20.06.2017 05:46 ]  

Статус: проверено (by Бишеп at 20.06.2017 05:50)
Поблагодарили: пока никто не поблагодарил...
Тип торрента: публичный - доступные источники с открытых трекеров: 
Размер: 517 MB (занимает 0,12 DVDR, для записи нужно 1 болванка DVDR/RW)
 
 
Похожие темы
Форум Тема Автор Торрент Отв. Посл. сооб.
Шансон (Шансон) Андрей Климнюк - От Афгана до Чечни - 1999, MP3, 320 kbps Bugor
1 | 0

0 | 2440

7

11.09.2012 15:17

Шансон (Шансон) Аркадий Неверный - "Памяти С.А.Есенина" - 2006, MP3, 320 kbps Bugor
1 | 0

0 | 1432

22

11.09.2012 17:40

Шансон (Шансон) Александр Дюмин - Старый паровоз (2013) [MP3, 320 kbps CBR] terra07
1 | 0

0 | 2484

32

04.09.2013 18:57

Шансон (Шансон) Аркадий Кобяков - Лучшие песни (2013) [MP3, 320 kbps CBR] Rodger23
6 | 0

0 | 2088

19

23.05.2014 04:33

Шансон (Lossless) (Шансон) Антология Русского Шансона: Владимир Асмолов - Звёздная серия (2002) [FLAC (Image+.CUE), Lossless] Бишеп
1 | 0

0 | 1541

19

31.07.2012 13:20

Шансон (Lossless) (Шансон) Анатолий Полотно - Анатолий Полотно и группа Лоц-Мэн (1995) [FLAC (Image+.CUE), Lossless] Бишеп
1 | 0

0 | 1300

10

28.09.2012 09:44

Шансон (Lossless) (Шансон) Анатолий Полотно и Федя Карманов - Поцелуй меня, удача! (2007) [FLAC (Image+.CUE), Lossless] Бишеп
1 | 0

1 | 2108

4

10.10.2012 10:09

Шансон (Lossless) (Шансон) Анатолий Полотно - В мелодиях и красках 2 CD (1995) [FLAC (Image+.CUE), Lossless] Бишеп
1 | 0

0 | 1211

9

09.10.2012 18:39

Шансон (Lossless) (Шансон) Анатолий Полотно - На севере (2005) [FLAC (Image+.CUE), Lossless] Бишеп
1 | 0

0 | 1634

16

01.11.2012 08:58

Шансон (Lossless) (Шансон) Анатолий Полотно - Против ветра (2008) [FLAC (Image+.CUE), Lossless] Бишеп
1 | 0

0 | 1106

1

20.11.2012 09:42


Яндекс.Метрика powered by Sphinx


В Н И М А Н И Е
Сайт не распространяет и не хранит электронные версии произведений, а лишь бесплатно и без коммерческой выгоды (не требуя взамен платы,
SMS и т.д.) предоставляет доступ к создаваемому пользователями каталогу ссылок на торрент-файлы, которые содержат только списки хеш-сумм.
Убедительная просьба с жалобами обращаться напрямую к пользователю, разместившему торрент файл.

Вверх