Loading...
Error

(Jazz Funk, Fusion) Doug Johns - Vodka In The Woodpile (2016) [FLAC (Tracks+.Cue), Lossless]

Статистика раздачи
Размер:  337 MB   |    Зарегистрирован:  1 год 8 месяцев   |    Скачан:  4 раза

Полного источника не было: 28 дней

Сидов:  0  |  0 KB/s  ]   Личеров:  0  |  0 KB/s  ]

* - сиды/пиры с внешних источников

   
 
Автор Сообщение

Бишеп Пол:Муж

08-Мар-2017 06:38

Doug Johns - Vodka In The Woodpile

Жанр: Jazz Funk, Fusion
Год выпуска: 2015
Источник: CD
Производитель диска: Doug Johns Records
Аудиокодек: FLAC
Тип рипа: Tracks+.CUE
Битрейт аудио: lossless
Продолжительность: 00:48:48


Треклист:
01. Old Woman Creek
02. Tricerafunk
03. Free Ride
04. Happy Family
05. Make the Music Feel Good
06. NEMO 1934
07. Fairwood Blvd
08. Vodka in the Woodpile
09. Ode to the River
10. Berlin
11. Dominicana

Код:

Exact Audio Copy V1.1 from 23. June 2015

EAC extraction logfile from 28. February 2017, 9:22

Doug Johns / Vodka In The Woodpile

Used drive  : SlimtypeeTAU108   2   Adapter: 1  ID: 1

Read mode               : Secure
Utilize accurate stream : Yes
Defeat audio cache      : Yes
Make use of C2 pointers : No

Read offset correction                      : 6
Overread into Lead-In and Lead-Out          : No
Fill up missing offset samples with silence : Yes
Delete leading and trailing silent blocks   : No
Null samples used in CRC calculations       : Yes
Used interface                              : Native Win32 interface for Win NT & 2000
Gap handling                                : Appended to previous track

Used output format              : User Defined Encoder
Selected bitrate                : 1024 kBit/s
Quality                         : High
Add ID3 tag                     : No
Command line compressor         : C:\Program Files (x86)\Exact Audio Copy\win64\flac.exe
Additional command line options : -8 -V -T "ARTIST=%artist%" -T "TITLE=%title%" -T "ALBUM=%albumtitle%" -T "DATE=%year%" -T "TRACKNUMBER=%tracknr%" -T "GENRE=%genre%" -T "COMMENT=%comment%" %source% -o %dest%

TOC of the extracted CD

     Track |   Start  |  Length  | Start sector | End sector
    ---------------------------------------------------------
        1  |  0:00.00 |  3:25.52 |         0    |    15426   
        2  |  3:25.52 |  4:44.07 |     15427    |    36733   
        3  |  8:09.59 |  3:18.38 |     36734    |    51621   
        4  | 11:28.22 |  5:13.18 |     51622    |    75114   
        5  | 16:41.40 |  4:51.37 |     75115    |    96976   
        6  | 21:33.02 |  3:59.47 |     96977    |   114948   
        7  | 25:32.49 |  4:12.49 |    114949    |   133897   
        8  | 29:45.23 |  3:59.00 |    133898    |   151822   
        9  | 33:44.23 |  6:49.18 |    151823    |   182515   
       10  | 40:33.41 |  4:23.23 |    182516    |   202263   
       11  | 44:56.64 |  3:51.28 |    202264    |   219616   

Track  1

     Filename D:\userrusman\Doug Johns - Vodka In The Woodpile 2016\01 Old Woman Creek.wav

     Pre-gap length  0:00:02.00

     Peak level 92.2 %
     Extraction speed 1.2 X
     Track quality 100.0 %
     Test CRC 105EF9B4
     Copy CRC 105EF9B4
     Track not present in AccurateRip database
     Copy OK

Track  2

     Filename D:\userrusman\Doug Johns - Vodka In The Woodpile 2016\02 Tricerafunk.wav

     Peak level 92.2 %
     Extraction speed 1.3 X
     Track quality 100.0 %
     Test CRC FB1C0644
     Copy CRC FB1C0644
     Track not present in AccurateRip database
     Copy OK

Track  3

     Filename D:\userrusman\Doug Johns - Vodka In The Woodpile 2016\03 Free Ride.wav

     Pre-gap length  0:00:01.00

     Peak level 92.2 %
     Extraction speed 1.2 X
     Track quality 99.9 %
     Test CRC 3D9BEA1B
     Copy CRC 3D9BEA1B
     Track not present in AccurateRip database
     Copy OK

Track  4

     Filename D:\userrusman\Doug Johns - Vodka In The Woodpile 2016\04 Happy Family.wav

     Pre-gap length  0:00:02.00

     Peak level 92.2 %
     Extraction speed 1.6 X
     Track quality 100.0 %
     Test CRC A64B33C3
     Copy CRC A64B33C3
     Track not present in AccurateRip database
     Copy OK

Track  5

     Filename D:\userrusman\Doug Johns - Vodka In The Woodpile 2016\05 Make the Music Feel Good.wav

     Pre-gap length  0:00:01.00

     Peak level 92.2 %
     Extraction speed 1.5 X
     Track quality 99.9 %
     Test CRC F26E434F
     Copy CRC F26E434F
     Track not present in AccurateRip database
     Copy OK

Track  6

     Filename D:\userrusman\Doug Johns - Vodka In The Woodpile 2016\06 NEMO 1934.wav

     Pre-gap length  0:00:02.00

     Peak level 92.2 %
     Extraction speed 1.7 X
     Track quality 100.0 %
     Test CRC 79A2A3C2
     Copy CRC 79A2A3C2
     Track not present in AccurateRip database
     Copy OK

Track  7

     Filename D:\userrusman\Doug Johns - Vodka In The Woodpile 2016\07 Fairwood Blvd..wav

     Pre-gap length  0:00:04.00

     Peak level 92.2 %
     Extraction speed 1.6 X
     Track quality 99.9 %
     Test CRC E2CF56BF
     Copy CRC E2CF56BF
     Track not present in AccurateRip database
     Copy OK

Track  8

     Filename D:\userrusman\Doug Johns - Vodka In The Woodpile 2016\08  Vodka in the Woodpile.wav

     Pre-gap length  0:00:02.00

     Peak level 92.2 %
     Extraction speed 1.9 X
     Track quality 100.0 %
     Test CRC 1AA4D05A
     Copy CRC 1AA4D05A
     Track not present in AccurateRip database
     Copy OK

Track  9

     Filename D:\userrusman\Doug Johns - Vodka In The Woodpile 2016\09 Ode to the River.wav

     Pre-gap length  0:00:01.00

     Peak level 92.2 %
     Extraction speed 2.1 X
     Track quality 100.0 %
     Test CRC A7CB5F88
     Copy CRC A7CB5F88
     Track not present in AccurateRip database
     Copy OK

Track 10

     Filename D:\userrusman\Doug Johns - Vodka In The Woodpile 2016\10 Berlin.wav

     Pre-gap length  0:00:01.00

     Peak level 92.2 %
     Extraction speed 2.1 X
     Track quality 100.0 %
     Test CRC DC098AA0
     Copy CRC DC098AA0
     Track not present in AccurateRip database
     Copy OK

Track 11

     Filename D:\userrusman\Doug Johns - Vodka In The Woodpile 2016\11 Dominicana.wav

     Pre-gap length  0:00:02.00

     Peak level 92.2 %
     Extraction speed 2.1 X
     Track quality 100.0 %
     Test CRC 01CB7238
     Copy CRC 01CB7238
     Track not present in AccurateRip database
     Copy OK

None of the tracks are present in the AccurateRip database

No errors occurred

End of status report

---- CUETools DB Plugin V2.1.6

[CTDB TOCID: g_dqSEyUNq6oHNJhkvRD2LWYr_U-] found
Submit result: g_dqSEyUNq6oHNJhkvRD2LWYr_U- has been confirmed
Track | CTDB Status
  1   | (2/2) Accurately ripped
  2   | (2/2) Accurately ripped
  3   | (2/2) Accurately ripped
  4   | (2/2) Accurately ripped
  5   | (2/2) Accurately ripped
  6   | (2/2) Accurately ripped
  7   | (2/2) Accurately ripped
  8   | (2/2) Accurately ripped
  9   | (2/2) Accurately ripped
 10   | (2/2) Accurately ripped
 11   | (2/2) Accurately ripped

==== Log checksum 7569B0C097C0C3EFE01857ECC8CD8BFCDEED85930ADAB6BB4061C879CAC54A03 ====

Код:

REM GENRE Fusion
REM DATE 2016
REM DISCID 920B700B
REM COMMENT "ExactAudioCopy v1.1"
PERFORMER "Doug Johns"
TITLE "Vodka In The Woodpile"
FILE "01 Old Woman Creek.wav" WAVE
  TRACK 01 AUDIO
    TITLE "Old Woman Creek"
    PERFORMER "Doug Johns"
    INDEX 01 00:00:00
FILE "02 Tricerafunk.wav" WAVE
  TRACK 02 AUDIO
    TITLE "Tricerafunk"
    PERFORMER "Doug Johns"
    INDEX 01 00:00:00
  TRACK 03 AUDIO
    TITLE "Free Ride"
    PERFORMER "Doug Johns"
    INDEX 00 04:43:07
FILE "03 Free Ride.wav" WAVE
    INDEX 01 00:00:00
  TRACK 04 AUDIO
    TITLE "Happy Family"
    PERFORMER "Doug Johns"
    INDEX 00 03:16:38
FILE "04 Happy Family.wav" WAVE
    INDEX 01 00:00:00
  TRACK 05 AUDIO
    TITLE "Make the Music Feel Good"
    PERFORMER "Doug Johns"
    INDEX 00 05:12:18
FILE "05 Make the Music Feel Good.wav" WAVE
    INDEX 01 00:00:00
  TRACK 06 AUDIO
    TITLE "NEMO 1934"
    PERFORMER "Doug Johns"
    INDEX 00 04:49:37
FILE "06 NEMO 1934.wav" WAVE
    INDEX 01 00:00:00
  TRACK 07 AUDIO
    TITLE "Fairwood Blvd."
    PERFORMER "Doug Johns"
    INDEX 00 03:55:47
FILE "07 Fairwood Blvd..wav" WAVE
    INDEX 01 00:00:00
  TRACK 08 AUDIO
    TITLE " Vodka in the Woodpile"
    PERFORMER "Doug Johns"
    INDEX 00 04:10:49
FILE "08 Vodka in the Woodpile.wav" WAVE
    INDEX 01 00:00:00
  TRACK 09 AUDIO
    TITLE "Ode to the River"
    PERFORMER "Doug Johns"
    INDEX 00 03:58:00
FILE "09 Ode to the River.wav" WAVE
    INDEX 01 00:00:00
  TRACK 10 AUDIO
    TITLE "Berlin"
    PERFORMER "Doug Johns"
    INDEX 00 06:48:18
FILE "10 Berlin.wav" WAVE
    INDEX 01 00:00:00
  TRACK 11 AUDIO
    TITLE "Dominicana"
    PERFORMER "Doug Johns"
    INDEX 00 04:21:23
FILE "11 Dominicana.wav" WAVE
    INDEX 01 00:00:00

Этот торрент недоступен для скачивания без регистрации, однако доступен по публичной magnet-ссылке (источники с публичных трекеров). Перед использованием ссылки прочтите, пожалуйста Пользовательское соглашение, а также как можно дольше оставайтесь на раздаче! Для того, чтобы скачать сам торрент-файл (который видит больше источников), а также для того, чтобы поблагодарить релизера, вам необходимо зарегистрироваться. Если регистрироваться лень - вы можете также попробовать скачать релиз по нашим партнерским ссылкам ниже. Кроме того, зарегистрированным пользователям не показывается всплывающая реклама при скачивании.

[underverse.me].t79304.torrent
Трекер: Зарегистрирован   [ 08.03.2017 06:38 ]  

Статус: проверено (by Бишеп at 08.03.2017 06:38)
Поблагодарили: пока никто не поблагодарил...
Тип торрента: публичный - доступные источники с открытых трекеров: 
Размер: 337 MB (занимает 0,08 DVDR, для записи нужно 1 болванка DVDR/RW)
 
 
Похожие темы
Форум Тема Автор Торрент Отв. Посл. сооб.
Jazz (Lossless) (Jazz Funk, Smooth Jazz) Four80East - Off Duty (2012) [FLAC (Image+.CUE), Lossless] Бишеп
2 | 1

0 | 987

5

22.04.2014 16:08

Jazz (Lossless) (Jazz Funk) Nils Landgren Funk Unit - Teamwork (2013) [FLAC (Tracks+.CUE), Lossless] Бишеп
9 | 0

0 | 1461

9

26.04.2014 05:24


Яндекс.Метрика powered by Sphinx


В Н И М А Н И Е
Сайт не распространяет и не хранит электронные версии произведений, а лишь бесплатно и без коммерческой выгоды (не требуя взамен платы,
SMS и т.д.) предоставляет доступ к создаваемому пользователями каталогу ссылок на торрент-файлы, которые содержат только списки хеш-сумм.
Убедительная просьба с жалобами обращаться напрямую к пользователю, разместившему торрент файл.

Вверх