Loading...
Error

(Шансон) Александр Тафинцев и Александр Самойлов - Я сижу и бухаю (2016) [FLAC (Image+.CUE), Lossless]

Статистика раздачи
Размер:  465 MB   |    Зарегистрирован:  1 год 3 месяца   |    Скачан:  4 раза

Полного источника не было: 4 дня

Сидов:  0  |  0 KB/s  ]   Личеров:  0  |  0 KB/s  ]

* - сиды/пиры с внешних источников

   
 
Автор Сообщение

Бишеп Пол:Муж

23-Фев-2017 10:24

Александр Тафинцев и Александр Самойлов - Я сижу и бухаю

Жанр: Шансон
Год выпуска: 2016
Источник: CD
Производитель диска: Студия Маркел
Аудиокодек: FLAC
Тип рипа: Image+.CUE
Битрейт аудио: lossless
Продолжительность: 01:05:13


Треклист:
01. Я сижу и бухаю
02. Богиня блюза
03. Дождь на стекле
04. Эмилия
05. Тёмный блюз
06. Седой
07. Этот блюз
08. Минздрав предупреждает
09. Осень приходит...
10. Золотая рыбка
11. Танцплощадка звала
12. Мой Людок
13. Отрубило начисто
14. Там высоко
15. Я люблю тебя

Код:

Exact Audio Copy V1.0 beta 3 from 29. August 2011

Отчёт EAC об извлечении, выполненном 5. января 2017, 11:04

Александр Тафинцев и Александр Самойлов / Я сижу и бухаю

Дисковод: TSSTcorpCDDVDW SH-S223F   Adapter: 2  ID: 0

Режим чтения                 : Достоверность
Использование точного потока : Да
Отключение кэша аудио        : Да
Использование указателей C2  : Нет

Коррекция смещения при чтении                     : 6
Способность читать области Lead-in и Lead-out     : Нет
Заполнение пропущенных сэмплов тишиной            : Да
Удаление блоков с тишиной в начале и конце        : Нет
При вычислениях CRC использовались нулевые сэмплы : Да
Интерфейс                                         : Встроенный Win32-интерфейс для Win NT/2000

Выходной формат : Внутренние WAV-операции
Формат сэмплов  : 44.100 Гц; 16 бит; стерео

TOC извлечённого CD

     Трек |   Старт  | Длительность | Начальный сектор | Конечный сектор
    ---------------------------------------------------------------------
       1  |  0:00.00 |    4:14.45   |           0      |      19094     
       2  |  4:14.45 |    5:01.04   |       19095      |      41673     
       3  |  9:15.49 |    3:58.31   |       41674      |      59554     
       4  | 13:14.05 |    3:59.57   |       59555      |      77536     
       5  | 17:13.62 |    4:49.29   |       77537      |      99240     
       6  | 22:03.16 |    3:53.08   |       99241      |     116723     
       7  | 25:56.24 |    4:45.28   |      116724      |     138126     
       8  | 30:41.52 |    3:28.13   |      138127      |     153739     
       9  | 34:09.65 |    4:36.60   |      153740      |     174499     
      10  | 38:46.50 |    4:10.68   |      174500      |     193317     
      11  | 42:57.43 |    6:00.13   |      193318      |     220330     
      12  | 48:57.56 |    4:02.23   |      220331      |     238503     
      13  | 53:00.04 |    4:03.60   |      238504      |     256788     
      14  | 57:03.64 |    3:45.63   |      256789      |     273726     
      15  | 60:49.52 |    4:23.72   |      273727      |     293523     

Характеристики диапазона извлечения и сообщения об ошибках

Выбранный диапазон

     Имя файла I:\Александр Тафинцев и Александр Самойлов - Я сижу и бухаю\Александр Тафинцев и Александр Самойлов - Я сижу и бухаю.wav

     Пиковый уровень 100.0 %
     Скорость извлечения 2.4 X
     Качество диапазона 100.0 %
     CRC теста DB3C0929
     CRC копии DB3C0929
     Копирование... OK

Ошибок не произошло

Конец отчёта

==== Контрольная сумма отчёта 0BE8E48A18E49AC3333B49B35DDBB23F4E9284123F106EBB54CB22F8645D0C1A ====

Код:

REM GENRE Chanson
REM DATE 2016
REM DISCID DD0F490F
REM COMMENT "ExactAudioCopy v1.0b3"
TITLE "Я сижу и бухаю"
PERFORMER "Александр Тафинцев и Александр Самойлов"
FILE "Александр Тафинцев и Александр Самойлов - Я сижу и бухаю.wav" WAVE    ; 3913653.333 milliseconds
  TRACK 01 AUDIO
    TITLE "Я сижу и бухаю"
    PERFORMER "Александр Тафинцев и Александр Самойлов"
    FLAGS DCP
    INDEX 01 00:00:00
  TRACK 02 AUDIO
    TITLE "Богиня блюза"
    PERFORMER "Александр Тафинцев и Александр Самойлов"
    FLAGS DCP
    INDEX 00 04:12:45
    INDEX 01 04:14:45
  TRACK 03 AUDIO
    TITLE "Дождь на стекле"
    PERFORMER "Александр Тафинцев и Александр Самойлов"
    FLAGS DCP
    INDEX 00 09:13:49
    INDEX 01 09:15:49
  TRACK 04 AUDIO
    TITLE Эмилия
    PERFORMER "Александр Тафинцев и Александр Самойлов"
    FLAGS DCP
    INDEX 00 13:12:05
    INDEX 01 13:14:05
  TRACK 05 AUDIO
    TITLE "Тёмный блюз"
    PERFORMER "Александр Тафинцев и Александр Самойлов"
    FLAGS DCP
    INDEX 00 17:11:62
    INDEX 01 17:13:62
  TRACK 06 AUDIO
    TITLE Седой
    PERFORMER "Александр Тафинцев и Александр Самойлов"
    FLAGS DCP
    INDEX 00 22:01:16
    INDEX 01 22:03:16
  TRACK 07 AUDIO
    TITLE "Этот блюз"
    PERFORMER "Александр Тафинцев и Александр Самойлов"
    FLAGS DCP
    INDEX 00 25:54:24
    INDEX 01 25:56:24
  TRACK 08 AUDIO
    TITLE "Минздрав предупреждает"
    PERFORMER "Александр Тафинцев и Александр Самойлов"
    FLAGS DCP
    INDEX 00 30:39:52
    INDEX 01 30:41:52
  TRACK 09 AUDIO
    TITLE "Осень приходит..."
    PERFORMER "Александр Тафинцев и Александр Самойлов"
    FLAGS DCP
    INDEX 00 34:07:65
    INDEX 01 34:09:65
  TRACK 10 AUDIO
    TITLE "Золотая рыбка"
    PERFORMER "Александр Тафинцев и Александр Самойлов"
    FLAGS DCP
    INDEX 00 38:44:50
    INDEX 01 38:46:50
  TRACK 11 AUDIO
    TITLE "Танцплощадка звала"
    PERFORMER "Александр Тафинцев и Александр Самойлов"
    FLAGS DCP
    INDEX 00 42:55:43
    INDEX 01 42:57:43
  TRACK 12 AUDIO
    TITLE "Мой Людок"
    PERFORMER "Александр Тафинцев и Александр Самойлов"
    FLAGS DCP
    INDEX 00 48:55:56
    INDEX 01 48:57:56
  TRACK 13 AUDIO
    TITLE "Отрубило начисто"
    PERFORMER "Александр Тафинцев и Александр Самойлов"
    FLAGS DCP
    INDEX 00 52:58:04
    INDEX 01 53:00:04
  TRACK 14 AUDIO
    TITLE "Там высоко"
    PERFORMER "Александр Тафинцев и Александр Самойлов"
    FLAGS DCP
    INDEX 00 57:01:64
    INDEX 01 57:03:64
  TRACK 15 AUDIO
    TITLE "Я люблю тебя"
    PERFORMER "Александр Тафинцев и Александр Самойлов"
    FLAGS DCP
    INDEX 00 60:47:52
    INDEX 01 60:49:52

Код:

-----------------------

DON'T MODIFY THIS FILE

-----------------------

PERFORMER: auCDtect Task Manager, ver. 1.6.0 RC1 build 1.6.0.1
Copyright (c) 2008-2010 y-soft. All rights reserved
http://y-soft.org

ANALYZER: auCDtect: CD records authenticity detector, version 0.8.2
Copyright (c) 2004 Oleg Berngardt. All rights reserved.
Copyright (c) 2004 Alexander Djourik. All rights reserved.

FILE: Александр Тафинцев и Александр Самойлов - Я сижу и бухаю.flac
  Size: 486473340 Hash: E115AF15784BF0F680E17C4007C3853B Accuracy: -m0
  Conclusion: CDDA 100%
  Signature: 596A5B84AD52B5C33AF40DA42A9E22910844353D

Этот торрент недоступен для скачивания без регистрации, однако доступен по публичной magnet-ссылке (источники с публичных трекеров). Перед использованием ссылки прочтите, пожалуйста Пользовательское соглашение, а также как можно дольше оставайтесь на раздаче! Для того, чтобы скачать сам торрент-файл (который видит больше источников), а также для того, чтобы поблагодарить релизера, вам необходимо зарегистрироваться. Если регистрироваться лень - вы можете также попробовать скачать релиз по нашим партнерским ссылкам ниже. Кроме того, зарегистрированным пользователям не показывается всплывающая реклама при скачивании.

[underverse.me].t78786.torrent
Трекер: Зарегистрирован   [ 23.02.2017 10:24 ]  

Статус: проверено (by Бишеп at 23.02.2017 10:25)
Поблагодарили: пока никто не поблагодарил...
Тип торрента: публичный - доступные источники с открытых трекеров: 
Размер: 465 MB (занимает 0,1 DVDR, для записи нужно 1 болванка DVDR/RW)
 
 
Похожие темы
Форум Тема Автор Торрент Отв. Посл. сооб.
Шансон (Шансон) Андрей Климнюк - От Афгана до Чечни - 1999, MP3, 320 kbps Bugor
1 | 0

0 | 2440

7

11.09.2012 15:17

Шансон (Шансон) Аркадий Неверный - "Памяти С.А.Есенина" - 2006, MP3, 320 kbps Bugor
1 | 0

0 | 1432

22

11.09.2012 17:40

Шансон (Шансон) Александр Дюмин - Старый паровоз (2013) [MP3, 320 kbps CBR] terra07
1 | 0

0 | 2484

32

04.09.2013 18:57

Шансон (Шансон) Аркадий Кобяков - Лучшие песни (2013) [MP3, 320 kbps CBR] Rodger23
6 | 0

0 | 2088

19

23.05.2014 04:33

Шансон (Lossless) (Шансон) Антология Русского Шансона: Владимир Асмолов - Звёздная серия (2002) [FLAC (Image+.CUE), Lossless] Бишеп
1 | 0

0 | 1541

19

31.07.2012 13:20

Шансон (Lossless) (Шансон) Анатолий Полотно - Анатолий Полотно и группа Лоц-Мэн (1995) [FLAC (Image+.CUE), Lossless] Бишеп
1 | 0

0 | 1300

10

28.09.2012 09:44

Шансон (Lossless) (Шансон) Анатолий Полотно и Федя Карманов - Поцелуй меня, удача! (2007) [FLAC (Image+.CUE), Lossless] Бишеп
1 | 0

1 | 2108

4

10.10.2012 10:09

Шансон (Lossless) (Шансон) Анатолий Полотно - В мелодиях и красках 2 CD (1995) [FLAC (Image+.CUE), Lossless] Бишеп
1 | 0

0 | 1211

9

09.10.2012 18:39

Шансон (Lossless) (Шансон) Анатолий Полотно - На севере (2005) [FLAC (Image+.CUE), Lossless] Бишеп
1 | 0

0 | 1634

16

01.11.2012 08:58

Шансон (Lossless) (Шансон) Анатолий Полотно - Против ветра (2008) [FLAC (Image+.CUE), Lossless] Бишеп
1 | 0

0 | 1106

1

20.11.2012 09:42


Яндекс.Метрика powered by Sphinx


В Н И М А Н И Е
Сайт не распространяет и не хранит электронные версии произведений, а лишь бесплатно и без коммерческой выгоды (не требуя взамен платы,
SMS и т.д.) предоставляет доступ к создаваемому пользователями каталогу ссылок на торрент-файлы, которые содержат только списки хеш-сумм.
Убедительная просьба с жалобами обращаться напрямую к пользователю, разместившему торрент файл.

Вверх