Loading...
Error

(Pop) Глюкоза - Москва (2005) [FLAC (Tracks+.CUE), Lossless]

Статистика раздачи
Размер:  356 MB   |    Зарегистрирован:  1 год 4 месяца   |    Скачан:  7 раз
Сидов:  1  |  0 KB/s  ]   Личеров:  0  |  0 KB/s  ]

* - сиды/пиры с внешних источников

   
 
Автор Сообщение

Бишеп Пол:Муж

08-Фев-2017 08:42

Глюкоза - Москва

Жанр: Pop
Год выпуска: 2005
Источник: CD
Производитель диска: Монолит
Аудиокодек: FLAC
Тип рипа: Tracks+.CUE
Битрейт аудио: lossless
Продолжительность: 00:52:15


Треклист:
01. Швайне
02. Снег Идёт
03. Горилла
04. К Чёрту
05. Юра
06. Москва
07. Пипец
08. Корабли
09. Ой-Ой
10. Карина
11. [silence]
12. Москва (Remix)
13. Юра (Remix)
14. Швайне (Remix)

Код:

Exact Audio Copy V1.0 beta 3 from 29. August 2011

EAC extraction logfile from 8. February 2012, 18:53

Глюкоза / Москва

Used drive  : Optiarc DVD RW AD-7260S   Adapter: 3  ID: 0

Read mode               : Secure
Utilize accurate stream : Yes
Defeat audio cache      : Yes
Make use of C2 pointers : No

Read offset correction                      : 48
Overread into Lead-In and Lead-Out          : No
Fill up missing offset samples with silence : Yes
Delete leading and trailing silent blocks   : No
Null samples used in CRC calculations       : Yes
Used interface                              : Native Win32 interface for Win NT & 2000
Gap handling                                : Appended to previous track

Used output format              : User Defined Encoder
Selected bitrate                : 1024 kBit/s
Quality                         : High
Add ID3 tag                     : No
Command line compressor         : C:\Program Files\foobar2000\flac-1.2.1-win\bin\flac.exe
Additional command line options : -8 -V -T "ARTIST=%artist%" -T "TITLE=%title%" -T "ALBUM=%albumtitle%" -T "DATE=%year%" -T "TRACKNUMBER=%tracknr%" -T "GENRE=%genre%" -T "PERFORMER=%albuminterpret%" -T "COMPOSER=%composer%" %haslyrics%--tag-from-file=LYRICS="%lyricsfile%"%haslyrics% -T "ALBUMARTIST=%albumartist%" -T "DISCNUMBER=%cdnumber%" -T "TOTALDISCS=%totalcds%" -T "TOTALTRACKS=%numtracks%" -T "COMMENT=%comment%" %source% -o %dest%

TOC of the extracted CD

     Track |   Start  |  Length  | Start sector | End sector
    ---------------------------------------------------------
        1  |  0:00.00 |  4:25.00 |         0    |    19874   
        2  |  4:25.00 |  3:58.63 |     19875    |    37787   
        3  |  8:23.63 |  5:01.24 |     37788    |    60386   
        4  | 13:25.12 |  5:14.15 |     60387    |    83951   
        5  | 18:39.27 |  3:26.21 |     83952    |    99422   
        6  | 22:05.48 |  3:45.27 |     99423    |   116324   
        7  | 25:51.00 |  3:08.58 |    116325    |   130482   
        8  | 28:59.58 |  3:48.55 |    130483    |   147637   
        9  | 32:48.38 |  3:39.18 |    147638    |   164080   
       10  | 36:27.56 |  3:32.40 |    164081    |   180020   
       11  | 40:00.21 |  0:30.00 |    180021    |   182270   
       12  | 40:30.21 |  3:49.23 |    182271    |   199468   
       13  | 44:19.44 |  3:31.54 |    199469    |   215347   
       14  | 47:51.23 |  4:23.60 |    215348    |   235132   

Track  1

     Filename D:\Music\EAC Rips\Глюкоза - Москва (2005) [FLAC]\01 - Швайне.wav

     Pre-gap length  0:00:02.00

     Peak level 96.3 %
     Extraction speed 2.6 X
     Track quality 100.0 %
     Test CRC DB72B7C8
     Copy CRC DB72B7C8
     Track not present in AccurateRip database
     Copy OK

Track  2

     Filename D:\Music\EAC Rips\Глюкоза - Москва (2005) [FLAC]\02 - Снег Идёт.wav

     Pre-gap length  0:00:01.93

     Peak level 95.3 %
     Extraction speed 2.8 X
     Track quality 100.0 %
     Test CRC E75ACF8A
     Copy CRC E75ACF8A
     Track not present in AccurateRip database
     Copy OK

Track  3

     Filename D:\Music\EAC Rips\Глюкоза - Москва (2005) [FLAC]\03 - Горилла.wav

     Pre-gap length  0:00:01.62

     Peak level 96.6 %
     Extraction speed 3.1 X
     Track quality 100.0 %
     Test CRC 5253DC28
     Copy CRC 5253DC28
     Track not present in AccurateRip database
     Copy OK

Track  4

     Filename D:\Music\EAC Rips\Глюкоза - Москва (2005) [FLAC]\04 - К Чёрту.wav

     Pre-gap length  0:00:01.61

     Peak level 93.5 %
     Extraction speed 3.4 X
     Track quality 100.0 %
     Test CRC 5A3DA098
     Copy CRC 5A3DA098
     Track not present in AccurateRip database
     Copy OK

Track  5

     Filename D:\Music\EAC Rips\Глюкоза - Москва (2005) [FLAC]\05 - Юра.wav

     Pre-gap length  0:00:01.53

     Peak level 99.6 %
     Extraction speed 3.4 X
     Track quality 100.0 %
     Test CRC C4F93586
     Copy CRC C4F93586
     Track not present in AccurateRip database
     Copy OK

Track  6

     Filename D:\Music\EAC Rips\Глюкоза - Москва (2005) [FLAC]\06 - Москва.wav

     Pre-gap length  0:00:01.69

     Peak level 96.7 %
     Extraction speed 3.6 X
     Track quality 100.0 %
     Test CRC 78A38215
     Copy CRC 78A38215
     Track not present in AccurateRip database
     Copy OK

Track  7

     Filename D:\Music\EAC Rips\Глюкоза - Москва (2005) [FLAC]\07 - Пипец.wav

     Pre-gap length  0:00:01.66

     Peak level 96.9 %
     Extraction speed 3.6 X
     Track quality 100.0 %
     Test CRC 750E1D4C
     Copy CRC 750E1D4C
     Track not present in AccurateRip database
     Copy OK

Track  8

     Filename D:\Music\EAC Rips\Глюкоза - Москва (2005) [FLAC]\08 - Корабли.wav

     Pre-gap length  0:00:01.58

     Peak level 96.6 %
     Extraction speed 3.4 X
     Track quality 99.9 %
     Test CRC 4CE1D639
     Copy CRC 4CE1D639
     Track not present in AccurateRip database
     Copy OK

Track  9

     Filename D:\Music\EAC Rips\Глюкоза - Москва (2005) [FLAC]\09 - Ой-Ой.wav

     Pre-gap length  0:00:01.40

     Peak level 96.6 %
     Extraction speed 4.0 X
     Track quality 100.0 %
     Test CRC 70A2EC50
     Copy CRC 70A2EC50
     Track not present in AccurateRip database
     Copy OK

Track 10

     Filename D:\Music\EAC Rips\Глюкоза - Москва (2005) [FLAC]\10 - Карина.wav

     Pre-gap length  0:00:01.61

     Peak level 96.7 %
     Extraction speed 4.1 X
     Track quality 100.0 %
     Test CRC 13F19447
     Copy CRC 13F19447
     Track not present in AccurateRip database
     Copy OK

Track 11

     Filename D:\Music\EAC Rips\Глюкоза - Москва (2005) [FLAC]\11 - [silence].wav

     Peak level 0.0 %
     Extraction speed 2.2 X
     Track quality 100.0 %
     Test CRC 6AB5B3AF
     Copy CRC 6AB5B3AF
     Track not present in AccurateRip database
     Copy OK

Track 12

     Filename D:\Music\EAC Rips\Глюкоза - Москва (2005) [FLAC]\12 - Москва (Remix).wav

     Peak level 96.2 %
     Extraction speed 4.2 X
     Track quality 100.0 %
     Test CRC 86A3B6FB
     Copy CRC 86A3B6FB
     Track not present in AccurateRip database
     Copy OK

Track 13

     Filename D:\Music\EAC Rips\Глюкоза - Москва (2005) [FLAC]\13 - Юра (Remix).wav

     Pre-gap length  0:00:01.86

     Peak level 95.7 %
     Extraction speed 4.3 X
     Track quality 100.0 %
     Test CRC 954E5E0B
     Copy CRC 954E5E0B
     Track not present in AccurateRip database
     Copy OK

Track 14

     Filename D:\Music\EAC Rips\Глюкоза - Москва (2005) [FLAC]\14 - Швайне (Remix).wav

     Pre-gap length  0:00:01.42

     Peak level 96.5 %
     Extraction speed 4.6 X
     Track quality 100.0 %
     Test CRC 79D7A0D1
     Copy CRC 79D7A0D1
     Track not present in AccurateRip database
     Copy OK

None of the tracks are present in the AccurateRip database

No errors occurred

End of status report

---- CUETools DB Plugin V2.1.3

[CTDB TOCID: 7yj7ATk.g7gB2xioee99dXjIupk-] found, Submit result: already submitted
[c4e1216f] (1/1) Accurately ripped

==== Log checksum 7101523038509B48917A12A960E345FA267B109ECBF0BA36BC2592902B860C54 ====

Код:

REM GENRE Pop
REM DATE 2005
REM DISCID B20C3F0E
REM COMMENT "ExactAudioCopy v1.0b3"
PERFORMER "Глюкоза"
TITLE "Москва"
FILE "01 - Швайне.wav" WAVE
  TRACK 01 AUDIO
    TITLE "Швайне"
    PERFORMER "Глюкоза"
    INDEX 01 00:00:00
  TRACK 02 AUDIO
    TITLE "Снег Идёт"
    PERFORMER "Глюкоза"
    INDEX 00 04:23:05
FILE "02 - Снег Идёт.wav" WAVE
    INDEX 01 00:00:00
  TRACK 03 AUDIO
    TITLE "Горилла"
    PERFORMER "Глюкоза"
    INDEX 00 03:57:16
FILE "03 - Горилла.wav" WAVE
    INDEX 01 00:00:00
  TRACK 04 AUDIO
    TITLE "К Чёрту"
    PERFORMER "Глюкоза"
    INDEX 00 04:59:53
FILE "04 - К Чёрту.wav" WAVE
    INDEX 01 00:00:00
  TRACK 05 AUDIO
    TITLE "Юра"
    PERFORMER "Глюкоза"
    INDEX 00 05:12:50
FILE "05 - Юра.wav" WAVE
    INDEX 01 00:00:00
  TRACK 06 AUDIO
    TITLE "Москва"
    PERFORMER "Глюкоза"
    INDEX 00 03:24:44
FILE "06 - Москва.wav" WAVE
    INDEX 01 00:00:00
  TRACK 07 AUDIO
    TITLE "Пипец"
    PERFORMER "Глюкоза"
    INDEX 00 03:43:52
FILE "07 - Пипец.wav" WAVE
    INDEX 01 00:00:00
  TRACK 08 AUDIO
    TITLE "Корабли"
    PERFORMER "Глюкоза"
    INDEX 00 03:07:14
FILE "08 - Корабли.wav" WAVE
    INDEX 01 00:00:00
  TRACK 09 AUDIO
    TITLE "Ой-Ой"
    PERFORMER "Глюкоза"
    INDEX 00 03:47:25
FILE "09 - Ой-Ой.wav" WAVE
    INDEX 01 00:00:00
  TRACK 10 AUDIO
    TITLE "Карина"
    PERFORMER "Глюкоза"
    INDEX 00 03:37:47
FILE "10 - Карина.wav" WAVE
    INDEX 01 00:00:00
FILE "11 - [silence].wav" WAVE
  TRACK 11 AUDIO
    TITLE "[silence]"
    PERFORMER "Глюкоза"
    INDEX 01 00:00:00
FILE "12 - Москва (Remix).wav" WAVE
  TRACK 12 AUDIO
    TITLE "Москва (Remix)"
    PERFORMER "Глюкоза"
    INDEX 01 00:00:00
  TRACK 13 AUDIO
    TITLE "Юра (Remix)"
    PERFORMER "Глюкоза"
    INDEX 00 03:47:33
FILE "13 - Юра (Remix).wav" WAVE
    INDEX 01 00:00:00
  TRACK 14 AUDIO
    TITLE "Швайне (Remix)"
    PERFORMER "Глюкоза"
    INDEX 00 03:30:22
FILE "14 - Швайне (Remix).wav" WAVE
    INDEX 01 00:00:00

Этот торрент недоступен для скачивания без регистрации, однако доступен по публичной magnet-ссылке (источники с публичных трекеров). Перед использованием ссылки прочтите, пожалуйста Пользовательское соглашение, а также как можно дольше оставайтесь на раздаче! Для того, чтобы скачать сам торрент-файл (который видит больше источников), а также для того, чтобы поблагодарить релизера, вам необходимо зарегистрироваться. Если регистрироваться лень - вы можете также попробовать скачать релиз по нашим партнерским ссылкам ниже. Кроме того, зарегистрированным пользователям не показывается всплывающая реклама при скачивании.

[underverse.me].t78053.torrent
Трекер: Зарегистрирован   [ 08.02.2017 08:42 ]  

Статус: проверено (by Бишеп at 08.02.2017 08:43)
Поблагодарили: пока никто не поблагодарил...
Тип торрента: публичный - доступные источники с открытых трекеров: 
Размер: 356 MB (занимает 0,08 DVDR, для записи нужно 1 болванка DVDR/RW)
 
 
Похожие темы
Форум Тема Автор Торрент Отв. Посл. сооб.
Отечественная Pop Музыка (Pop) Глюк'oZa (Глюкоза) - Транс-форма (2011) [MP3, 320 kbps] МУХА~
0 | 0

0 | 1554

37

12.11.2011 09:32

Отечественная Поп Музыка (Lossless) (Pop) Глюкоза - Глюк’оzа Nostra (2003) [FLAC (Image+.CUE), Lossless] Бишеп
1 | 0

0 | 1808

12

03.09.2012 18:56


Яндекс.Метрика powered by Sphinx


В Н И М А Н И Е
Сайт не распространяет и не хранит электронные версии произведений, а лишь бесплатно и без коммерческой выгоды (не требуя взамен платы,
SMS и т.д.) предоставляет доступ к создаваемому пользователями каталогу ссылок на торрент-файлы, которые содержат только списки хеш-сумм.
Убедительная просьба с жалобами обращаться напрямую к пользователю, разместившему торрент файл.

Вверх