Loading...
Error

(Pop) Зодчие - Любовное настроение (2004) [FLAC (Image+.CUE), Lossless]

Статистика раздачи
Размер:  417 MB   |    Зарегистрирован:  1 год 7 месяцев   |    Скачан:  5 раз

Полного источника не было: 5 часов

Сидов:  0  |  0 KB/s  ]   Личеров:  0  |  0 KB/s  ]

* - сиды/пиры с внешних источников

   
 
Автор Сообщение

Бишеп Пол:Муж

08-Фев-2017 07:35

Зодчие - Любовное настроение

Жанр: Pop
Год выпуска: 2004
Источник: CD
Производитель диска: Никитин - ТФН - CD 205/04
Аудиокодек: FLAC
Тип рипа: Image+.CUE
Битрейт аудио: lossless
Продолжительность: 00:59:15


Треклист:
01. В украинской деревне хорошо!
02. Землекоп
03. Блюз на одной струне
04. Дайте народу пиво!
05. Я хочу на берег
06. Жевательная резинка
07. Каприз
08. Как жаль
09. Жизнь холостая
10. Кто остановит ночь?
11. Дедушка Ленин
12. Не забывай поливать цветок
13. Часовой
14. Товарищ майор, я не верю
15. Самый красивый парень
16. Праздник позади

Код:

Exact Audio Copy V1.0 beta 3 from 29. August 2011

EAC extraction logfile from 31. August 2016, 20:51

Зодчие / Любовное настроение

Used drive  : TSSTcorpCDDVDW SH-224DB   Adapter: 0  ID: 1

Read mode               : Secure
Utilize accurate stream : Yes
Defeat audio cache      : Yes
Make use of C2 pointers : No

Read offset correction                      : 6
Overread into Lead-In and Lead-Out          : No
Fill up missing offset samples with silence : Yes
Delete leading and trailing silent blocks   : No
Null samples used in CRC calculations       : Yes
Used interface                              : Installed external ASPI interface

Used output format              : User Defined Encoder
Selected bitrate                : 1024 kBit/s
Quality                         : High
Add ID3 tag                     : No
Command line compressor         : D:\Program Files\Exact Audio Copy\FLAC\FLAC.EXE
Additional command line options : -V -8 -T "Genre=%genre%" -T "Artist=%artist%" -T "Title=%title%" -T "Album=%albumtitle%" -T "Date=%year%" -T "Tracknumber=%tracknr%" -T "Comment=%comment%" %source%

TOC of the extracted CD

     Track |   Start  |  Length  | Start sector | End sector
    ---------------------------------------------------------
        1  |  0:00.00 |  3:54.65 |         0    |    17614   
        2  |  3:54.65 |  2:53.27 |     17615    |    30616   
        3  |  6:48.17 |  3:41.28 |     30617    |    47219   
        4  | 10:29.45 |  4:26.29 |     47220    |    67198   
        5  | 14:55.74 |  5:01.65 |     67199    |    89838   
        6  | 19:57.64 |  2:45.00 |     89839    |   102213   
        7  | 22:42.64 |  4:20.03 |    102214    |   121716   
        8  | 27:02.67 |  3:03.52 |    121717    |   135493   
        9  | 30:06.44 |  3:54.63 |    135494    |   153106   
       10  | 34:01.32 |  3:44.08 |    153107    |   169914   
       11  | 37:45.40 |  2:24.65 |    169915    |   180779   
       12  | 40:10.30 |  3:21.72 |    180780    |   195926   
       13  | 43:32.27 |  5:25.18 |    195927    |   220319   
       14  | 48:57.45 |  4:00.04 |    220320    |   238323   
       15  | 52:57.49 |  3:19.64 |    238324    |   253312   
       16  | 56:17.38 |  2:57.28 |    253313    |   266615   

Range status and errors

Selected range

     Filename D:\Desktop\Зодчие - Любовное настроение (2004)\Зодчие - Любовное настроение.wav

     Peak level 100.0 %
     Extraction speed 2.9 X
     Range quality 100.0 %
     Test CRC 94A509B0
     Copy CRC 94A509B0
     Copy OK

No errors occurred

 
AccurateRip summary
 
Track  1  accurately ripped (confidence 1)  [9814C86A]  (AR v1)
Track  2  accurately ripped (confidence 1)  [A5FDEB8D]  (AR v1)
Track  3  accurately ripped (confidence 1)  [1A637F02]  (AR v1)
Track  4  accurately ripped (confidence 1)  [32A901C0]  (AR v1)
Track  5  accurately ripped (confidence 1)  [143422F4]  (AR v1)
Track  6  accurately ripped (confidence 1)  [4054A30D]  (AR v1)
Track  7  accurately ripped (confidence 1)  [59B133E9]  (AR v1)
Track  8  accurately ripped (confidence 1)  [20E3B6F5]  (AR v1)
Track  9  accurately ripped (confidence 1)  [31C23205]  (AR v1)
Track 10  accurately ripped (confidence 1)  [E279F497]  (AR v1)
Track 11  accurately ripped (confidence 1)  [CB668DB4]  (AR v1)
Track 12  accurately ripped (confidence 1)  [8DCB8B26]  (AR v1)
Track 13  accurately ripped (confidence 1)  [444A4AF2]  (AR v1)
Track 14  accurately ripped (confidence 1)  [E1568AF6]  (AR v1)
Track 15  accurately ripped (confidence 1)  [E25A727C]  (AR v1)
Track 16  accurately ripped (confidence 1)  [D5ED39A4]  (AR v1)
 
All tracks accurately ripped

End of status report

Код:

REM GENRE "Pop, Retro"
REM DATE 2004
REM DISCID E50DE210
REM COMMENT "ExactAudioCopy v1.0b3"
PERFORMER "Зодчие"
TITLE "Любовное настроение"
FILE "Зодчие - Любовное настроение.flac" WAVE
  TRACK 01 AUDIO
    TITLE "В украинской деревне хорошо!"
    PERFORMER "Зодчие"
    FLAGS DCP
    INDEX 01 00:00:00
  TRACK 02 AUDIO
    TITLE "Землекоп"
    PERFORMER "Зодчие"
    FLAGS DCP
    INDEX 00 03:52:65
    INDEX 01 03:54:65
  TRACK 03 AUDIO
    TITLE "Блюз на одной струне"
    PERFORMER "Зодчие"
    FLAGS DCP
    INDEX 00 06:46:17
    INDEX 01 06:48:17
  TRACK 04 AUDIO
    TITLE "Дайте народу пиво!"
    PERFORMER "Зодчие"
    FLAGS DCP
    INDEX 00 10:27:45
    INDEX 01 10:29:45
  TRACK 05 AUDIO
    TITLE "Я хочу на берег"
    PERFORMER "Зодчие"
    FLAGS DCP
    INDEX 00 14:53:74
    INDEX 01 14:55:74
  TRACK 06 AUDIO
    TITLE "Жевательная резинка"
    PERFORMER "Зодчие"
    FLAGS DCP
    INDEX 00 19:55:64
    INDEX 01 19:57:64
  TRACK 07 AUDIO
    TITLE "Каприз"
    PERFORMER "Зодчие"
    FLAGS DCP
    INDEX 00 22:40:64
    INDEX 01 22:42:64
  TRACK 08 AUDIO
    TITLE "Как жаль"
    PERFORMER "Зодчие"
    FLAGS DCP
    INDEX 00 27:00:67
    INDEX 01 27:02:67
  TRACK 09 AUDIO
    TITLE "Жизнь холостая"
    PERFORMER "Зодчие"
    FLAGS DCP
    INDEX 00 30:04:44
    INDEX 01 30:06:44
  TRACK 10 AUDIO
    TITLE "Кто остановит ночь?"
    PERFORMER "Зодчие"
    FLAGS DCP
    INDEX 00 33:59:32
    INDEX 01 34:01:32
  TRACK 11 AUDIO
    TITLE "Дедушка Ленин"
    PERFORMER "Зодчие"
    FLAGS DCP
    INDEX 00 37:43:40
    INDEX 01 37:45:40
  TRACK 12 AUDIO
    TITLE "Не забывай поливать цветок"
    PERFORMER "Зодчие"
    FLAGS DCP
    INDEX 00 40:08:30
    INDEX 01 40:10:30
  TRACK 13 AUDIO
    TITLE "Часовой"
    PERFORMER "Зодчие"
    FLAGS DCP
    INDEX 00 43:30:27
    INDEX 01 43:32:27
  TRACK 14 AUDIO
    TITLE "Товарищ майор, я не верю"
    PERFORMER "Зодчие"
    FLAGS DCP
    INDEX 00 48:55:45
    INDEX 01 48:57:45
  TRACK 15 AUDIO
    TITLE "Самый красивый парень"
    PERFORMER "Зодчие"
    FLAGS DCP
    INDEX 00 52:55:49
    INDEX 01 52:57:49
  TRACK 16 AUDIO
    TITLE "Праздник позади"
    PERFORMER "Зодчие"
    FLAGS DCP
    INDEX 00 56:15:38
    INDEX 01 56:17:38

Код:

-----------------------

DON'T MODIFY THIS FILE

-----------------------

PERFORMER: auCDtect Task Manager, ver. 1.6.0 RC1 build 1.6.0.1
Copyright (c) 2008-2010 y-soft. All rights reserved
http://y-soft.org

ANALYZER: auCDtect: CD records authenticity detector, version 0.8.2
Copyright (c) 2004 Oleg Berngardt. All rights reserved.
Copyright (c) 2004 Alexander Djourik. All rights reserved.

FILE: Зодчие - Любовное настроение.flac
  Size: 413913979 Hash: EDA55B6E3F4DDB21545591386DE4D902 Accuracy: -m8
  Conclusion: CDDA 100%
  Signature: 21959DC4D544E22D56119304EB4BEC3D0F0B2D8F

Этот торрент недоступен для скачивания без регистрации, однако доступен по публичной magnet-ссылке (источники с публичных трекеров). Перед использованием ссылки прочтите, пожалуйста Пользовательское соглашение, а также как можно дольше оставайтесь на раздаче! Для того, чтобы скачать сам торрент-файл (который видит больше источников), а также для того, чтобы поблагодарить релизера, вам необходимо зарегистрироваться. Если регистрироваться лень - вы можете также попробовать скачать релиз по нашим партнерским ссылкам ниже. Кроме того, зарегистрированным пользователям не показывается всплывающая реклама при скачивании.

[underverse.me].t78051.torrent
Трекер: Зарегистрирован   [ 08.02.2017 07:35 ]  

Статус: проверено (by Бишеп at 08.02.2017 07:36)
Поблагодарили: пока никто не поблагодарил...
Тип торрента: публичный - доступные источники с открытых трекеров: 
Размер: 417 MB (занимает 0,09 DVDR, для записи нужно 1 болванка DVDR/RW)
 
 

Яндекс.Метрика powered by Sphinx


В Н И М А Н И Е
Сайт не распространяет и не хранит электронные версии произведений, а лишь бесплатно и без коммерческой выгоды (не требуя взамен платы,
SMS и т.д.) предоставляет доступ к создаваемому пользователями каталогу ссылок на торрент-файлы, которые содержат только списки хеш-сумм.
Убедительная просьба с жалобами обращаться напрямую к пользователю, разместившему торрент файл.

Вверх