Loading...
Error

(Jazz, Rock, Funk, Soul, Blues) Julie Driscoll & Brian Auger - Best Of Julie Driscoll & Brian Auger (1992) [FLAC (Image+.Cue), Lossless]

Статистика раздачи
Размер:  444 MB   |    Зарегистрирован:  1 год 8 месяцев   |    Скачан:  4 раза

Полного источника не было: 1 день 8 часов

Сидов:  0  |  0 KB/s  ]   Личеров:  0  |  0 KB/s  ]

* - сиды/пиры с внешних источников

   
 
Автор Сообщение

Бишеп Пол:Муж

13-Янв-2017 21:24

Julie Driscoll & Brian Auger - Best Of Julie Driscoll & Brian Auger

Жанр: Jazz, Rock, Funk, Soul, Blues
Год выпуска: 1992
Источник: CD
Производитель диска: Polydor - 513 515-2
Аудиокодек: FLAC
Тип рипа: Image+.CUE
Битрейт аудио: lossless
Продолжительность: 01:14:22


Треклист:
01. This Wheel's On Fire
02. Let The Sunshine In
03. Season Of The Witch
04. Ellis Island
05. Indian Rope Man
06. Czechoslovakia
07. Save The Country
08. Tramp
09. When I Was Young
10. Save Me (Part 1)
11. Light My Fire
12. Take Me To The Water
13. Road To Cairo
14. Good Bye Jungle Telegraph
15. Black Cat
16. I've Got Life

Код:

Exact Audio Copy V1.0 beta 3 from 29. August 2011

EAC extraction logfile from 8. January 2017, 8:14

Various / Jukie Driscoll & Brian Auger  "Best Of"

Used drive  : TSSTcorpCDDVDW SH-216DB   Adapter: 0  ID: 0

Read mode               : Secure
Utilize accurate stream : Yes
Defeat audio cache      : Yes
Make use of C2 pointers : No

Read offset correction                      : 6
Overread into Lead-In and Lead-Out          : No
Fill up missing offset samples with silence : Yes
Delete leading and trailing silent blocks   : No
Null samples used in CRC calculations       : Yes
Used interface                              : Native Win32 interface for Win NT & 2000

Used output format              : User Defined Encoder
Selected bitrate                : 1024 kBit/s
Quality                         : High
Add ID3 tag                     : No
Command line compressor         : C:\Program Files (x86)\Exact Audio Copy\Flac\flac.exe
Additional command line options : -V -8 -T "Date=%year%" -T "Genre=%genre%" %source%

TOC of the extracted CD

     Track |   Start  |  Length  | Start sector | End sector
    ---------------------------------------------------------
        1  |  0:00.33 |  3:32.52 |        33    |    15984   
        2  |  3:33.10 |  3:06.43 |     15985    |    29977   
        3  |  6:39.53 |  7:54.17 |     29978    |    65544   
        4  | 14:33.70 |  4:10.53 |     65545    |    84347   
        5  | 18:44.48 |  3:22.52 |     84348    |    99549   
        6  | 22:07.25 |  6:26.58 |     99550    |   128557   
        7  | 28:34.08 |  3:56.65 |    128558    |   146322   
        8  | 32:30.73 |  4:10.22 |    146323    |   165094   
        9  | 36:41.20 |  7:03.70 |    165095    |   196889   
       10  | 43:45.15 |  2:30.65 |    196890    |   208204   
       11  | 46:16.05 |  4:22.50 |    208205    |   227904   
       12  | 50:38.55 |  4:17.38 |    227905    |   247217   
       13  | 54:56.18 |  5:21.00 |    247218    |   271292   
       14  | 60:17.18 |  6:14.17 |    271293    |   299359   
       15  | 66:31.35 |  3:24.25 |    299360    |   314684   
       16  | 69:55.60 |  4:26.13 |    314685    |   334647   

Range status and errors

Selected range

     Filename L:\Private\My Audio Ripps\ CD - RIPS\Julie Driscoll & Brian Auger - Best Of\Various - Jukie Driscoll & Brian Auger  ''Best Of''.wav

     Peak level 100.0 %
     Extraction speed 2.4 X
     Range quality 100.0 %
     Test CRC 0C50A144
     Copy CRC 0C50A144
     Copy OK

No errors occurred

 
AccurateRip summary
 
Track  1  accurately ripped (confidence 16)  [18D4D6BB]  (AR v2)
Track  2  accurately ripped (confidence 16)  [C9B59EA3]  (AR v2)
Track  3  accurately ripped (confidence 16)  [6B021070]  (AR v2)
Track  4  accurately ripped (confidence 16)  [CF76A5AE]  (AR v2)
Track  5  accurately ripped (confidence 16)  [67FB629B]  (AR v2)
Track  6  accurately ripped (confidence 16)  [F5CFA119]  (AR v2)
Track  7  accurately ripped (confidence 16)  [498DA122]  (AR v2)
Track  8  accurately ripped (confidence 16)  [C1543045]  (AR v2)
Track  9  accurately ripped (confidence 16)  [894695ED]  (AR v2)
Track 10  accurately ripped (confidence 16)  [9B611EFC]  (AR v2)
Track 11  accurately ripped (confidence 16)  [8296669F]  (AR v2)
Track 12  accurately ripped (confidence 16)  [9CE449C8]  (AR v2)
Track 13  accurately ripped (confidence 16)  [3FBB4063]  (AR v2)
Track 14  accurately ripped (confidence 16)  [2CB0E797]  (AR v2)
Track 15  accurately ripped (confidence 16)  [8A663201]  (AR v2)
Track 16  accurately ripped (confidence 16)  [CD5F8F58]  (AR v2)
 
All tracks accurately ripped

End of status report

==== Log checksum 06B87747F4F09C3A98F85EBF378D3AF45CF216FE38ACACDD0186906509791554 ====

Код:

REM GENRE Rock
REM DATE 1992
REM DISCID E9116D10
REM COMMENT "ExactAudioCopy v1.0b3"
PERFORMER "Jukie Driscoll & Brian Auger"
TITLE "Best Of"
FILE "Jukie Driscoll & Brian Auger - Best Of.flac" WAVE
  TRACK 01 AUDIO
    TITLE "This Wheel's On Fire"
    PERFORMER "Jukie Driscoll & Brian Auger"
    INDEX 00 00:00:00
    INDEX 01 00:00:33
  TRACK 02 AUDIO
    TITLE "Let The Sunshine In"
    PERFORMER "Jukie Driscoll & Brian Auger"
    INDEX 00 03:31:10
    INDEX 01 03:33:10
  TRACK 03 AUDIO
    TITLE "Seasons Of The Witch"
    PERFORMER "Jukie Driscoll & Brian Auger"
    INDEX 00 06:37:53
    INDEX 01 06:39:53
  TRACK 04 AUDIO
    TITLE "Ellis Island"
    PERFORMER "Jukie Driscoll & Brian Auger"
    INDEX 00 14:31:70
    INDEX 01 14:33:70
  TRACK 05 AUDIO
    TITLE "Indian Rope Man"
    PERFORMER "Jukie Driscoll & Brian Auger"
    INDEX 00 18:42:48
    INDEX 01 18:44:48
  TRACK 06 AUDIO
    TITLE "Czechoslovakia"
    PERFORMER "Jukie Driscoll & Brian Auger"
    INDEX 00 22:05:25
    INDEX 01 22:07:25
  TRACK 07 AUDIO
    TITLE "Save The Country"
    PERFORMER "Jukie Driscoll & Brian Auger"
    INDEX 00 28:32:08
    INDEX 01 28:34:08
  TRACK 08 AUDIO
    TITLE "Tramp"
    PERFORMER "Jukie Driscoll & Brian Auger"
    INDEX 00 32:28:73
    INDEX 01 32:30:73
  TRACK 09 AUDIO
    TITLE "When I Was Young"
    PERFORMER "Jukie Driscoll & Brian Auger"
    INDEX 00 36:39:20
    INDEX 01 36:41:20
  TRACK 10 AUDIO
    TITLE "Save Me (Part1)"
    PERFORMER "Jukie Driscoll & Brian Auger"
    INDEX 00 43:43:15
    INDEX 01 43:45:15
  TRACK 11 AUDIO
    TITLE "Light My Fire"
    PERFORMER "Jukie Driscoll & Brian Auger"
    INDEX 00 46:14:05
    INDEX 01 46:16:05
  TRACK 12 AUDIO
    TITLE "Take Me To The Water"
    PERFORMER "Jukie Driscoll & Brian Auger"
    INDEX 00 50:36:55
    INDEX 01 50:38:55
  TRACK 13 AUDIO
    TITLE "Road To Cairo"
    PERFORMER "Jukie Driscoll & Brian Auger"
    INDEX 00 54:54:18
    INDEX 01 54:56:18
  TRACK 14 AUDIO
    TITLE "Goodbye Jungle Telegraph"
    PERFORMER "Jukie Driscoll & Brian Auger"
    INDEX 00 60:15:18
    INDEX 01 60:17:18
  TRACK 15 AUDIO
    TITLE "Black Cat"
    PERFORMER "Jukie Driscoll & Brian Auger"
    INDEX 00 66:29:35
    INDEX 01 66:31:35
  TRACK 16 AUDIO
    TITLE "I've Got Live"
    PERFORMER "Jukie Driscoll & Brian Auger"
    INDEX 00 69:53:60
    INDEX 01 69:55:60

Этот торрент недоступен для скачивания без регистрации, однако доступен по публичной magnet-ссылке (источники с публичных трекеров). Перед использованием ссылки прочтите, пожалуйста Пользовательское соглашение, а также как можно дольше оставайтесь на раздаче! Для того, чтобы скачать сам торрент-файл (который видит больше источников), а также для того, чтобы поблагодарить релизера, вам необходимо зарегистрироваться. Если регистрироваться лень - вы можете также попробовать скачать релиз по нашим партнерским ссылкам ниже. Кроме того, зарегистрированным пользователям не показывается всплывающая реклама при скачивании.

[underverse.me].t76974.torrent
Трекер: Зарегистрирован   [ 13.01.2017 21:24 ]  

Статус: проверено (by Бишеп at 13.01.2017 21:24)
Поблагодарили: пока никто не поблагодарил...
Тип торрента: публичный - доступные источники с открытых трекеров: 
Размер: 444 MB (занимает 0,1 DVDR, для записи нужно 1 болванка DVDR/RW)
 
 
Похожие темы
Форум Тема Автор Торрент Отв. Посл. сооб.
Jazz (Lossless) (Jazz, Rock, Pop Rock) Steely Dan - Aja (1984) [FLAC (Tracks+.CUE), Lossless] Бишеп
3 | 4

1 | 1720

10

22.05.2017 17:35

Jazz (Lossless) (Jazz, Rock) Sadakazu Tabata & Groovy 6 - Smash In The Rock (2007) [FLAC (Tracks+.Cue), Lossless] Бишеп
5 | 1

0 | 216

4

11.04.2018 13:09


Яндекс.Метрика powered by Sphinx


В Н И М А Н И Е
Сайт не распространяет и не хранит электронные версии произведений, а лишь бесплатно и без коммерческой выгоды (не требуя взамен платы,
SMS и т.д.) предоставляет доступ к создаваемому пользователями каталогу ссылок на торрент-файлы, которые содержат только списки хеш-сумм.
Убедительная просьба с жалобами обращаться напрямую к пользователю, разместившему торрент файл.

Вверх