Loading...
Error

Найди меня, если сможешь / Приди и найди меня / Come and Find Me (Зак Уэдон) [2016 г., драма, триллер, WEB-DL 1080p] MVO + Original

Статистика раздачи
Размер:  4,03 GB   |    Зарегистрирован:  4 месяца 16 дней   |    Скачан:  12 раз

Полного источника не было: 2 месяца 12 дней

Сидов:  0  |  0 KB/s  ]   Личеров:  0  |  0 KB/s  ]

* - сиды/пиры с внешних источников

   
 
Автор Сообщение

makkol Пол:Муж

11-Янв-2017 13:44

Найди меня, если сможешь / Приди и найди меня / Come and Find Me


Год выпуска: 2016
Жанр: драма, триллер
Производство: Великобритания [Automatik Entertainment, Motion Picture Capital]
Режиссер: Зак Уэдон
В ролях: Аарон Пол, Аннабелль Уоллис, Гаррет Диллахант, Валери Тиан, Захари Найтон, Терри Чен, Джордана Ларги, Дин Редман, Майкл Копса, Джессика Хифи
Сюжет фильма:
Идеальным отношениям Давида и Клэр приходит внезапный и таинственный конец после того, как Клэр бесследно исчезает. Опустошённый, но не теряющий надежды, Дэвид идёт по её следам, несмотря на нарастающее безумие и опасность. Выяснив, что Клэр ведёт двойную жизнь, он вынужден рисковать всем, чтобы снова её увидеть.

  • Мировая премьера: 11 ноября 2016
  • Российская премьера: 22 декабря 2016


Качество видео: WEB-DL 1080p

Продолжительность: 01:52:23
Формат: MKV
Видео: MPEG-4 AVC, 1912x796 (2.40:1), 23.976 fps, 4469 kbps
Аудио #1: русский, профессиональный многоголосый закадровый (официальный звук), AC3 2.0, 48 kHz, 192 kbps
Аудио #2: английский, оригинал, AC3 5.1, 48 kHz, 384 kbps
Субтитры: английские вшитые отключаемые

Код:

Format : Matroska
Format version : Version 4 / Version 2
File size : 4.03 GiB
Duration : 1h 52mn
Overall bit rate : 5 147 Kbps
Encoded date : UTC 2017-01-10 12:03:14
Writing application : mkvmerge v6.8.0 ('Theme for Great Cities') 32bit built on Mar 2 2014 21:27:07
Writing library : libebml v1.3.0 + libmatroska v1.4.1

Video
ID : 1
Format : AVC
Format/Info : Advanced Video Codec
Format profile : High@L4.0
Format settings, CABAC : Yes
Format settings, ReFrames : 5 frames
Codec ID : V_MPEG4/ISO/AVC
Duration : 1h 52mn
Bit rate : 4 468 Kbps
Width : 1 912 pixels
Height : 796 pixels
Display aspect ratio : 2.40:1
Frame rate mode : Constant
Frame rate : 23.976 fps
Color space : YUV
Chroma subsampling : 4:2:0
Bit depth : 8 bits
Scan type : Progressive
Bits/(Pixel*Frame) : 0.122
Stream size : 3.50 GiB (87%)
Language : English
Default : Yes
Forced : No
Color primaries : BT.709
Transfer characteristics : BT.709
Matrix coefficients : BT.709

Audio #1
ID : 2
Format : AC-3
Format/Info : Audio Coding 3
Mode extension : CM (complete main)
Format settings, Endianness : Big
Codec ID : A_AC3
Duration : 1h 52mn
Bit rate mode : Constant
Bit rate : 192 Kbps
Channel(s) : 2 channels
Channel positions : Front: L R
Sampling rate : 48.0 KHz
Bit depth : 16 bits
Compression mode : Lossy
Stream size : 154 MiB (4%)
Language : Russian
Default : Yes
Forced : Yes

Audio #2
ID : 3
Format : AC-3
Format/Info : Audio Coding 3
Mode extension : CM (complete main)
Format settings, Endianness : Big
Codec ID : A_AC3
Duration : 1h 52mn
Bit rate mode : Constant
Bit rate : 384 Kbps
Channel(s) : 6 channels
Channel positions : Front: L C R, Side: L R, LFE
Sampling rate : 48.0 KHz
Bit depth : 16 bits
Compression mode : Lossy
Stream size : 308 MiB (7%)
Language : English
Default : No
Forced : No

Text
ID : 4
Format : UTF-8
Codec ID : S_TEXT/UTF8
Codec ID/Info : UTF-8 Plain Text
Language : English
Default : Yes
Forced : No

Menu
00:00:00.000 : en:1
00:10:26.000 : en:2
00:21:17.000 : en:3
00:31:41.000 : en:4
00:40:13.000 : en:5
00:51:13.000 : en:6
01:02:03.000 : en:7
01:14:57.000 : en:8
01:24:28.000 : en:9
01:34:11.000 : en:10
01:47:21.000 : en:11


picpicpicpicpic
Для увеличения картинки щелкните мышкой по превью

Этот торрент недоступен для скачивания без регистрации, однако доступен по публичной magnet-ссылке (источники с публичных трекеров). Перед использованием ссылки прочтите, пожалуйста Пользовательское соглашение, а также как можно дольше оставайтесь на раздаче! Для того, чтобы скачать сам торрент-файл (который видит больше источников), а также для того, чтобы поблагодарить релизера, вам необходимо зарегистрироваться. Если регистрироваться лень - вы можете также попробовать скачать релиз по нашим партнерским ссылкам ниже.

[underverse.me].t76902.torrent
Трекер: Зарегистрирован   [ 11.01.2017 13:44 ]  

Статус: T временная (by makkol at 17.01.2017 22:03)
Поблагодарили: пока никто не поблагодарил...
Тип торрента: публичный - доступные источники с открытых трекеров: 
Размер: 4,03 GB (занимает 0,92 DVDR, для записи нужно 1 болванка DVDR/RW)
 
 
Похожие темы
Форум Тема Автор Торрент Отв. Посл. сооб.
T Зарубежное кино [DVDRip, Low-Res HDRip, и т.д.] Найди меня, если сможешь / Приди и найди меня / Come and Find Me (Зак Уэдон) [2016 г., драма, триллер, HDRip] MVO makkol
2 | 0

0 | 499

11

11.01.2017 13:23

T Зарубежное кино [DVDRip, Low-Res HDRip, и т.д.] Найди меня, если сможешь / Приди и найди меня / Come and Find Me (Зак Уэдон) [2016 г., драма, триллер, HDRip] MVO + Original makkol
1 | 0

0 | 518

2

11.01.2017 13:28

T Зарубежное кино [DVDRip, Low-Res HDRip, и т.д.] Найди меня, если сможешь / Come and Find Me (Зак Уэдон) [2016 г., драма, триллер, HDRip] MVO (iTunes) makkol
11 | 0

0 | 585

2

13.03.2017 21:48

T Зарубежное кино [DVDRip, Low-Res HDRip, и т.д.] Найди меня, если сможешь / Come and Find Me (Зак Уэдон) [2016 г., драма, триллер, HDRip] MVO (iTunes) + Original makkol
1 | 0

0 | 477

1

13.03.2017 21:56

Наше кино [DVDRip, Low-Res HDRip, и т.д.] Найди меня (Игорь Москвитин) [2010 г., криминал, IPTVRip] konopic
5 | 0

0 | 312

10

16.04.2014 10:52

T Зарубежное кино [HDDVDRip / BDRip / WEB-DL / HDTV 1080/720р] Найди меня, если сможешь / Приди и найди меня / Come and Find Me (Зак Уэдон) [2016 г., драма, триллер, WEB-DL 720p] MVO + Original makkol
1 | 0

0 | 455

5

11.01.2017 13:36

T Зарубежное кино [HDDVDRip / BDRip / WEB-DL / HDTV 1080/720р] Найди меня, если сможешь / Come and Find Me (Зак Уэдон) [2016 г., триллер, драма, BDRip 720p] MVO (iTunes) + Original (Eng) + Sub (Eng) 90ytr90
13 | 2

0 | 564

4

14.03.2017 08:43

T Зарубежное кино [HDDVDRip / BDRip / WEB-DL / HDTV 1080/720р] Найди меня, если сможешь / Come and Find Me (Зак Уэдон) [2016 г., триллер, драма, BDRip 1080p] MVO (iTunes) + Original (Eng) + Sub (Eng) 90ytr90
19 | 1

0 | 497

0

14.03.2017 08:47


Яндекс.Метрика powered by Sphinx


В Н И М А Н И Е
Сайт не распространяет и не хранит электронные версии произведений, а лишь бесплатно и без коммерческой выгоды (не требуя взамен платы,
SMS и т.д.) предоставляет доступ к создаваемому пользователями каталогу ссылок на торрент-файлы, которые содержат только списки хеш-сумм.
Убедительная просьба с жалобами обращаться напрямую к пользователю, разместившему торрент файл.

Вверх