Loading...
Error

(Шансон) Братья Жемчужные - Песни из нашей жизни (2001) [FLAC (Tracks+.CUE), Lossless]

Статистика раздачи
Размер:  487 MB   |    Зарегистрирован:  1 год 9 месяцев   |    Скачан:  3 раза
Сидов:  1  |  0 KB/s  ]   Личеров:  0  |  0 KB/s  ]

* - сиды/пиры с внешних источников

   
 
Автор Сообщение

Бишеп Пол:Муж

22-Дек-2016 16:08

Братья Жемчужные - Песни из нашей жизни

Жанр: Шансон
Год выпуска: 2001
Источник: CD
Производитель диска: Октава/MStars
Аудиокодек: FLAC
Тип рипа: Tracks+.CUE
Битрейт аудио: lossless
Продолжительность: 01:14:39


Треклист:
01. Поезд ехал на восток
02. Журавли
03. У нас в Одессе это не едят
04. Я милого узнаю по походке
05. Сурка
06. Поспели вишни
07. Сын поварихи
08. Я родом из Одессы
09. Люблю цыгана Яна
10. Несчастная девчонка
11. Ах, Одесса
12. Стоял я раз на стреме
13. Семь маслин в нагане
14. Памяти друга
15. Восьмиклинка
16. Достойно
17. Березы
18. Осень Петербурга
19. Раз в Ростове-на -Дону
20. Соленые грибочки
21. Дворовой джаз
22. Старый саксофон

Код:

Exact Audio Copy V1.0 beta 2 from 29. April 2011

EAC extraction logfile from 21. November 2012, 15:07

Братья Жемчужные / Песни из нашей жизни

Used drive  : HL-DT-STDVDRAM GSA-T50N   Adapter: 1  ID: 0

Read mode               : Secure
Utilize accurate stream : Yes
Defeat audio cache      : Yes
Make use of C2 pointers : No

Read offset correction                      : 667
Overread into Lead-In and Lead-Out          : No
Fill up missing offset samples with silence : Yes
Delete leading and trailing silent blocks   : No
Null samples used in CRC calculations       : Yes
Used interface                              : Native Win32 interface for Win NT & 2000
Gap handling                                : Appended to previous track

Used output format              : User Defined Encoder
Selected bitrate                : 1024 kBit/s
Quality                         : High
Add ID3 tag                     : No
Command line compressor         : C:\Program Files\Exact Audio Copy\Flac\flac.exe
Additional command line options : -8 -V -T "ARTIST=%artist%" -T "TITLE=%title%" -T "ALBUM=%albumtitle%" -T "DATE=%year%" -T "TRACKNUMBER=%tracknr%" -T "GENRE=%genre%" -T "PERFORMER=%albuminterpret%" -T "COMMENT=EAC V1.0 beta 2, Secure Mode, Test & Copy, Acc

TOC of the extracted CD

     Track |   Start  |  Length  | Start sector | End sector
    ---------------------------------------------------------
        1  |  0:00.00 |  1:41.71 |         0    |     7645   
        2  |  1:41.71 |  3:52.54 |      7646    |    25099   
        3  |  5:34.50 |  3:40.32 |     25100    |    41631   
        4  |  9:15.07 |  2:20.06 |     41632    |    52137   
        5  | 11:35.13 |  3:11.55 |     52138    |    66517   
        6  | 14:46.68 |  2:08.17 |     66518    |    76134   
        7  | 16:55.10 |  2:15.07 |     76135    |    86266   
        8  | 19:10.17 |  2:50.16 |     86267    |    99032   
        9  | 22:00.33 |  3:16.70 |     99033    |   113802   
       10  | 25:17.28 |  2:49.40 |    113803    |   126517   
       11  | 28:06.68 |  1:48.53 |    126518    |   134670   
       12  | 29:55.46 |  3:18.05 |    134671    |   149525   
       13  | 33:13.51 |  3:16.15 |    149526    |   164240   
       14  | 36:29.66 |  4:36.02 |    164241    |   184942   
       15  | 41:05.68 |  3:17.05 |    184943    |   199722   
       16  | 44:22.73 |  3:07.47 |    199723    |   213794   
       17  | 47:30.45 |  5:02.59 |    213795    |   236503   
       18  | 52:33.29 |  5:08.08 |    236504    |   259611   
       19  | 57:41.37 |  6:08.25 |    259612    |   287236   
       20  | 63:49.62 |  3:39.43 |    287237    |   303704   
       21  | 67:29.30 |  3:26.05 |    303705    |   319159   
       22  | 70:55.35 |  3:44.12 |    319160    |   335971   

Track  1

     Filename C:\music\Musicgate's rips\Братья Жемчужные - Песни из нашей жизни (2001)\01 - Поезд ехал на восток.wav

     Pre-gap length  0:00:02.00

     Peak level 96.5 %
     Extraction speed 2.0 X
     Track quality 100.0 %
     Test CRC 62009FFA
     Copy CRC 62009FFA
     Track not present in AccurateRip database
     Copy OK

Track  2

     Filename C:\music\Musicgate's rips\Братья Жемчужные - Песни из нашей жизни (2001)\02 - Журавли.wav

     Peak level 96.5 %
     Extraction speed 2.2 X
     Track quality 99.9 %
     Test CRC 8ABC7773
     Copy CRC 8ABC7773
     Track not present in AccurateRip database
     Copy OK

Track  3

     Filename C:\music\Musicgate's rips\Братья Жемчужные - Песни из нашей жизни (2001)\03 - У нас в Одессе это не едят.wav

     Peak level 96.5 %
     Extraction speed 2.3 X
     Track quality 99.9 %
     Test CRC 149FC886
     Copy CRC 149FC886
     Track not present in AccurateRip database
     Copy OK

Track  4

     Filename C:\music\Musicgate's rips\Братья Жемчужные - Песни из нашей жизни (2001)\04 - Я милого узнаю по походке.wav

     Peak level 96.5 %
     Extraction speed 2.1 X
     Track quality 99.9 %
     Test CRC 14CF607F
     Copy CRC 14CF607F
     Track not present in AccurateRip database
     Copy OK

Track  5

     Filename C:\music\Musicgate's rips\Братья Жемчужные - Песни из нашей жизни (2001)\05 - Сурка.wav

     Peak level 96.5 %
     Extraction speed 3.0 X
     Track quality 100.0 %
     Test CRC DE3D97F5
     Copy CRC DE3D97F5
     Track not present in AccurateRip database
     Copy OK

Track  6

     Filename C:\music\Musicgate's rips\Братья Жемчужные - Песни из нашей жизни (2001)\06 - Поспели вишни.wav

     Peak level 96.5 %
     Extraction speed 2.8 X
     Track quality 100.0 %
     Test CRC F3010DD5
     Copy CRC F3010DD5
     Track not present in AccurateRip database
     Copy OK

Track  7

     Filename C:\music\Musicgate's rips\Братья Жемчужные - Песни из нашей жизни (2001)\07 - Сын поварихи.wav

     Peak level 96.5 %
     Extraction speed 2.4 X
     Track quality 99.9 %
     Test CRC 480FAA98
     Copy CRC 480FAA98
     Track not present in AccurateRip database
     Copy OK

Track  8

     Filename C:\music\Musicgate's rips\Братья Жемчужные - Песни из нашей жизни (2001)\08 - Я родом из Одессы.wav

     Peak level 96.5 %
     Extraction speed 3.2 X
     Track quality 100.0 %
     Test CRC 94B3D891
     Copy CRC 94B3D891
     Track not present in AccurateRip database
     Copy OK

Track  9

     Filename C:\music\Musicgate's rips\Братья Жемчужные - Песни из нашей жизни (2001)\09 - Люблю цыгана Яна.wav

     Peak level 96.5 %
     Extraction speed 3.4 X
     Track quality 100.0 %
     Test CRC 6D00A577
     Copy CRC 6D00A577
     Track not present in AccurateRip database
     Copy OK

Track 10

     Filename C:\music\Musicgate's rips\Братья Жемчужные - Песни из нашей жизни (2001)\10 - Несчастная девчонка.wav

     Peak level 96.5 %
     Extraction speed 3.4 X
     Track quality 100.0 %
     Test CRC B8D65AEC
     Copy CRC B8D65AEC
     Track not present in AccurateRip database
     Copy OK

Track 11

     Filename C:\music\Musicgate's rips\Братья Жемчужные - Песни из нашей жизни (2001)\11 - Ах,Одесса.wav

     Peak level 96.5 %
     Extraction speed 3.2 X
     Track quality 100.0 %
     Test CRC 3E215788
     Copy CRC 3E215788
     Track not present in AccurateRip database
     Copy OK

Track 12

     Filename C:\music\Musicgate's rips\Братья Жемчужные - Песни из нашей жизни (2001)\12 - Стоял Я раз на стреме.wav

     Peak level 96.5 %
     Extraction speed 3.7 X
     Track quality 100.0 %
     Test CRC AA4767A6
     Copy CRC AA4767A6
     Track not present in AccurateRip database
     Copy OK

Track 13

     Filename C:\music\Musicgate's rips\Братья Жемчужные - Песни из нашей жизни (2001)\13 - Семь маслин в нагане.wav

     Peak level 96.5 %
     Extraction speed 3.3 X
     Track quality 99.9 %
     Test CRC 32699B07
     Copy CRC 32699B07
     Track not present in AccurateRip database
     Copy OK

Track 14

     Filename C:\music\Musicgate's rips\Братья Жемчужные - Песни из нашей жизни (2001)\14 - Памяти друга.wav

     Peak level 96.5 %
     Extraction speed 4.2 X
     Track quality 100.0 %
     Test CRC 31E95162
     Copy CRC 31E95162
     Track not present in AccurateRip database
     Copy OK

Track 15

     Filename C:\music\Musicgate's rips\Братья Жемчужные - Песни из нашей жизни (2001)\15 - Восьмиклинка.wav

     Peak level 96.5 %
     Extraction speed 4.0 X
     Track quality 100.0 %
     Test CRC 60BA337F
     Copy CRC 60BA337F
     Track not present in AccurateRip database
     Copy OK

Track 16

     Filename C:\music\Musicgate's rips\Братья Жемчужные - Песни из нашей жизни (2001)\16 - Достойно.wav

     Peak level 96.5 %
     Extraction speed 4.2 X
     Track quality 100.0 %
     Test CRC A6CBC116
     Copy CRC A6CBC116
     Track not present in AccurateRip database
     Copy OK

Track 17

     Filename C:\music\Musicgate's rips\Братья Жемчужные - Песни из нашей жизни (2001)\17 - Березы.wav

     Peak level 96.5 %
     Extraction speed 4.1 X
     Track quality 99.9 %
     Test CRC A94BDAAE
     Copy CRC A94BDAAE
     Track not present in AccurateRip database
     Copy OK

Track 18

     Filename C:\music\Musicgate's rips\Братья Жемчужные - Песни из нашей жизни (2001)\18 - Осень Петербурга.wav

     Peak level 96.5 %
     Extraction speed 4.3 X
     Track quality 99.9 %
     Test CRC FFCD5350
     Copy CRC FFCD5350
     Track not present in AccurateRip database
     Copy OK

Track 19

     Filename C:\music\Musicgate's rips\Братья Жемчужные - Песни из нашей жизни (2001)\19 - Раз в Ростове-на -Дону.wav

     Peak level 96.5 %
     Extraction speed 5.0 X
     Track quality 100.0 %
     Test CRC 710CFD54
     Copy CRC 710CFD54
     Track not present in AccurateRip database
     Copy OK

Track 20

     Filename C:\music\Musicgate's rips\Братья Жемчужные - Песни из нашей жизни (2001)\20 - Соленые грибочки.wav

     Peak level 94.4 %
     Extraction speed 4.8 X
     Track quality 100.0 %
     Test CRC 49F8CF43
     Copy CRC 49F8CF43
     Track not present in AccurateRip database
     Copy OK

Track 21

     Filename C:\music\Musicgate's rips\Братья Жемчужные - Песни из нашей жизни (2001)\21 - Дворовой джаз.wav

     Peak level 94.4 %
     Extraction speed 4.8 X
     Track quality 100.0 %
     Test CRC 85D4F102
     Copy CRC 85D4F102
     Track not present in AccurateRip database
     Copy OK

Track 22

     Filename C:\music\Musicgate's rips\Братья Жемчужные - Песни из нашей жизни (2001)\22 - Старый саксофон.wav

     Peak level 94.4 %
     Extraction speed 5.0 X
     Track quality 100.0 %
     Test CRC EB4485C6
     Copy CRC EB4485C6
     Track not present in AccurateRip database
     Copy OK

None of the tracks are present in the AccurateRip database

No errors occurred

End of status report

==== Log checksum CD3662FEDEBCFD36A954E637F7E9C65EFDBAF079B5CEF2A6F00366A5A5DE3C4A ====

Код:

REM GENRE Chanson
REM DATE 2001
REM DISCID 4F117F16
REM COMMENT "ExactAudioCopy v1.0b2"
PERFORMER "Братья Жемчужные"
TITLE "Песни из нашей жизни"
FILE "Range.wav" WAVE
  TRACK 01 AUDIO
    TITLE "Поезд ехал на восток"
    PERFORMER "Братья Жемчужные"
    INDEX 01 00:00:00
  TRACK 02 AUDIO
    TITLE "Журавли"
    PERFORMER "Братья Жемчужные"
    INDEX 01 01:41:71
  TRACK 03 AUDIO
    TITLE "У нас в Одессе это не едят"
    PERFORMER "Братья Жемчужные"
    INDEX 01 05:34:50
  TRACK 04 AUDIO
    TITLE "Я милого узнаю по походке"
    PERFORMER "Братья Жемчужные"
    INDEX 01 09:15:07
  TRACK 05 AUDIO
    TITLE "Сурка"
    PERFORMER "Братья Жемчужные"
    INDEX 01 11:35:13
  TRACK 06 AUDIO
    TITLE "Поспели вишни"
    PERFORMER "Братья Жемчужные"
    INDEX 01 14:46:68
  TRACK 07 AUDIO
    TITLE "Сын поварихи"
    PERFORMER "Братья Жемчужные"
    INDEX 01 16:55:10
  TRACK 08 AUDIO
    TITLE "Я родом из Одессы"
    PERFORMER "Братья Жемчужные"
    INDEX 01 19:10:17
  TRACK 09 AUDIO
    TITLE "Люблю цыгана Яна"
    PERFORMER "Братья Жемчужные"
    INDEX 01 22:00:33
  TRACK 10 AUDIO
    TITLE "Несчастная девчонка"
    PERFORMER "Братья Жемчужные"
    INDEX 01 25:17:28
  TRACK 11 AUDIO
    TITLE "Ах,Одесса"
    PERFORMER "Братья Жемчужные"
    INDEX 01 28:06:68
  TRACK 12 AUDIO
    TITLE "Стоял Я раз на стреме"
    PERFORMER "Братья Жемчужные"
    INDEX 01 29:55:46
  TRACK 13 AUDIO
    TITLE "Семь маслин в нагане"
    PERFORMER "Братья Жемчужные"
    INDEX 01 33:13:51
  TRACK 14 AUDIO
    TITLE "Памяти друга"
    PERFORMER "Братья Жемчужные"
    INDEX 01 36:29:66
  TRACK 15 AUDIO
    TITLE "Восьмиклинка"
    PERFORMER "Братья Жемчужные"
    INDEX 01 41:05:68
  TRACK 16 AUDIO
    TITLE "Достойно"
    PERFORMER "Братья Жемчужные"
    INDEX 01 44:22:73
  TRACK 17 AUDIO
    TITLE "Березы"
    PERFORMER "Братья Жемчужные"
    INDEX 01 47:30:45
  TRACK 18 AUDIO
    TITLE "Осень Петербурга"
    PERFORMER "Братья Жемчужные"
    INDEX 01 52:33:29
  TRACK 19 AUDIO
    TITLE "Раз в Ростове-на -Дону"
    PERFORMER "Братья Жемчужные"
    INDEX 01 57:41:37
  TRACK 20 AUDIO
    TITLE "Соленые грибочки"
    PERFORMER "Братья Жемчужные"
    INDEX 01 63:49:62
  TRACK 21 AUDIO
    TITLE "Дворовой джаз"
    PERFORMER "Братья Жемчужные"
    INDEX 01 67:29:30
  TRACK 22 AUDIO
    TITLE "Старый саксофон"
    PERFORMER "Братья Жемчужные"
    INDEX 01 70:55:35

Этот торрент недоступен для скачивания без регистрации, однако доступен по публичной magnet-ссылке (источники с публичных трекеров). Перед использованием ссылки прочтите, пожалуйста Пользовательское соглашение, а также как можно дольше оставайтесь на раздаче! Для того, чтобы скачать сам торрент-файл (который видит больше источников), а также для того, чтобы поблагодарить релизера, вам необходимо зарегистрироваться. Если регистрироваться лень - вы можете также попробовать скачать релиз по нашим партнерским ссылкам ниже. Кроме того, зарегистрированным пользователям не показывается всплывающая реклама при скачивании.

[underverse.su].t75913.torrent
Трекер: Зарегистрирован   [ 22.12.2016 16:08 ]  

Статус: проверено (by Бишеп at 22.12.2016 16:21)
Поблагодарили: пока никто не поблагодарил...
Тип торрента: публичный - доступные источники с открытых трекеров: 
Размер: 487 MB (занимает 0,11 DVDR, для записи нужно 1 болванка DVDR/RW)
 
 
Похожие темы
Форум Тема Автор Торрент Отв. Посл. сооб.
Шансон (Шансон) Беломорканал - Лучшее - 2004, MP3, 320 kbps Bugor
0 | 0

0 | 2359

16

11.09.2012 17:31

Шансон (Шансон) Бутырка - MP3 Play. Музыкальная коллекция (2013) [MP3, 192 - 256 kbps CBR] viktor.r-79
1 | 0

1 | 1543

46

08.11.2014 18:21

Шансон (Lossless) (Шансон) БумеR - Соседка (2013) [FLAC (Image+.CUE), Lossless] Бишеп
1 | 0

0 | 2131

22

29.11.2013 04:46

Шансон (Lossless) (Шансон) Братья Жемчужные - Антология русского шансона (2CD) (2002) [FLAC (Tracks+.CUE), Lossless] Бишеп
2 | 0

0 | 2782

17

13.12.2013 12:23

Шансон (Lossless) (Шансон) БумеR (Бумер) - Не плачь (2014) [FLAC (Image+.CUE), Lossless] Бишеп
1 | 0

0 | 1826

25

07.04.2014 06:02

* Архив (ретро, шансон, военная музыка, барды) (Шансон) Бумер - Когда уходят друзья (2009) [MP3, 320 kbps] taled

1 | 1766

12.09.2010 19:40

Архив (ретро, шансон, военная музыка, барды) (Шансон) Беломорканал - Дискография (1997-2010) [MP3, VBR 128-320 kbps] Алексей 25
0 | 0

2 | 4929

0

28.04.2012 19:15

Архив (ретро, шансон, военная музыка, барды) (Шансон) Бумер - 50 лучших песен (2011) [MP3, 320 kbps CBR] техно1
0 | 0

1 | 7787

12

25.05.2018 15:44


Яндекс.Метрика powered by Sphinx


В Н И М А Н И Е
Сайт не распространяет и не хранит электронные версии произведений, а лишь бесплатно и без коммерческой выгоды (не требуя взамен платы,
SMS и т.д.) предоставляет доступ к создаваемому пользователями каталогу ссылок на торрент-файлы, которые содержат только списки хеш-сумм.
Убедительная просьба с жалобами обращаться напрямую к пользователю, разместившему торрент файл.

Вверх