Loading...
Error

Загадочный предок из Каменного века / Enigma Man: A Stone Age Mystery (Даниэлла Ортега) [2014 г., документальный, игровой, научно-популярный, SatRip] DVO (СВ Дубль)

Статистика раздачи
Размер:  814 MB   |    Зарегистрирован:  4 дня   |    Скачан:  2 раза

Полного источника не было: 2 дня 8 часов

Сидов:  0  |  0 KB/s  ]   Личеров:  0  |  0 KB/s  ]

* - сиды/пиры с внешних источников

   
 
Автор Сообщение

ARI71 Пол:Муж

30-Ноя-2016 16:28

Загадочный предок из Каменного века / Enigma Man: A Stone Age Mystery


Год выпуска: 2014
Жанр: документальный, игровой, научно-популярный
Страна: Австралия Electric Pictures Pty Ltd
Режиссер: Даниэлла Ортега
Сюжет фильма:
Примерно пятьдесят тысяч лет назад в первобытных лесах Восточной Азии появились первые люди. Видимо, они и были предками многочисленных народов на нескольких континентах. Но недавно ученые сделали открытие, которое опровергает все наши прошлые представления об эволюции человека. Труднодоступная пещера в Юго-Восточном Китае стала последним прибежищем весьма необычных, неизвестных ранее людей, чьи останки пролежали нетронутыми несколько тысячелетий. И теперь перед антропологами стоит непростая задача - разгадать тайну этой сенсационной находки. Что, если это новый вид человека? Когда находят новый вид, ему дают название на латыни. "Митуан" на китайском означает - "загадка", "головоломка". Интернациональная команда палеонтологов предложила назвать его "хомо митуанис".


Качество видео: SatRip

Продолжительность: 00:57:00
Формат: AVI
Видео: XviD, 720x400, 1798 kbps
Аудио: русский, двухголосый [профессиональный, СВ Дубль], AC3 2.0, 192 kbps

Автор рипа: skorpionN

Код:

Общее
Полное имя : D:\Enigma Man_A Stone Age Mystery.avi
Формат : AVI
Формат/Информация : Audio Video Interleave
Размер файла : 814 Мбайт
Продолжительность : 56 м.
Общий поток : 1998 Кбит/сек
Программа кодирования : TMPGEnc Video Mastering Works 5 Version. 5.0.6.38
Библиотека кодирования : TMPGEnc Video Mastering Works 5 Version. 5.0.6.38

Видео
Идентификатор : 0
Формат : MPEG-4 Visual
Профиль формата : Advanced Simple@L5
Параметр BVOP формата : 2
Параметр QPel формата : Нет
Параметр GMC формата : Без точки перехода
Параметр матрицы формата : Default (H.263)
Режим смешивания : Сжатый битовый поток
Идентификатор кодека : XVID
Идентификатор кодека/Подсказка : XviD
Продолжительность : 56 м.
Битрейт : 1798 Кбит/сек
Ширина : 720 пикселей
Высота : 400 пикселей
Соотношение сторон : 16:9
Частота кадров : 25,000 кадров/сек
Цветовое пространство : YUV
Субдискретизация насыщенности : 4:2:0
Битовая глубина : 8 бит
Тип развёртки : Прогрессивная
Метод сжатия : С потерями
Бит/(Пиксели*Кадры) : 0.250
Размер потока : 733 Мбайт (90%)
Библиотека кодирования : XviD 73

Аудио
Идентификатор : 1
Формат : AC-3
Формат/Информация : Audio Coding 3
Расширение режима : CM (complete main)
Параметр Endianness формата : Big
Идентификатор кодека : 2000
Продолжительность : 56 м.
Вид битрейта : Постоянный
Битрейт : 192 Кбит/сек
Каналы : 2 канала
Расположение каналов : Front: L R
Частота : 48,0 КГц
Частота кадров : 31,250 кадров/сек (1536 spf)
Метод сжатия : С потерями
Размер потока : 78,3 Мбайт (10%)
Выравнивание : Соединение по промежуткам
Продолжительность промежутка : 240 мс. (6,00 видеокадров)
Время предзагрузки промежутка : 224 мс.
picpicpicpicpic
Для увеличения картинки щелкните мышкой по превью

Этот торрент недоступен для скачивания без регистрации, однако доступен по публичной magnet-ссылке (источники с публичных трекеров). Перед использованием ссылки прочтите, пожалуйста Пользовательское соглашение, а также как можно дольше оставайтесь на раздаче! Для того, чтобы скачать сам торрент-файл (который видит больше источников), а также для того, чтобы поблагодарить релизера, вам необходимо зарегистрироваться. Если регистрироваться лень - вы можете также попробовать скачать релиз по нашим партнерским ссылкам ниже.

[underverse.su].t74690.torrent
Трекер: Зарегистрирован   [ 30.11.2016 16:28 ]  

Статус: проверено (by ARI71 at 30.11.2016 16:32)
Поблагодарили: пока никто не поблагодарил...
Тип торрента: публичный - доступные источники с открытых трекеров: 
Размер: 814 MB (занимает 0,18 DVDR, для записи нужно 1 болванка DVDR/RW)
 
 
Похожие темы
Форум Тема Автор Торрент Отв. Посл. сооб.
Игры для Android Загадочный Дом / Mystery Manor / Android 2.3 или выше (Android) Русский Станислав Карбанович
3 | 0

0 | 620

7

24.05.2015 13:13


Яндекс.Метрика powered by Sphinx


В Н И М А Н И Е
Сайт не распространяет и не хранит электронные версии произведений, а лишь бесплатно и без коммерческой выгоды (не требуя взамен платы,
SMS и т.д.) предоставляет доступ к создаваемому пользователями каталогу ссылок на торрент-файлы, которые содержат только списки хеш-сумм.
Убедительная просьба с жалобами обращаться напрямую к пользователю, разместившему торрент файл.

Вверх