Loading...
Error

Экспедиция на Марс / Expedition Mars (Натан Хендри) [2016 г., документальный, исследование, космос, астрономия, TVRip] Dub (Велес) + Original (Eng)

Статистика раздачи
Размер:  1,38 GB   |    Зарегистрирован:  6 дней   |    Скачан:  1 раз

Полного источника не было: 2 дня 1 час

Сидов:  0  |  0 KB/s  ]   Личеров:  0  |  0 KB/s  ]

* - сиды/пиры с внешних источников

   
 
Автор Сообщение

ARI71 Пол:Муж

30-Ноя-2016 07:42

Экспедиция на Марс / Expedition Mars


Год выпуска: 2016
Жанр: документальный, исследование, космос, астрономия
Страна: США National Geographic Channels
Режиссер: Натан Хендри
Сюжет фильма:
Вопреки всем предшествующим неудачам в освоении Красной планеты, как на Земле так и на Марсе, марсоходы "Спирит" и "Оппортьюнити" совершили два удивительных путешествия и окончательно проложили путь на Марс. Их стойкость вдохнула в исследования жизнь, а находки заставили вернуться еще раз."Спирит" и "Оппортьюнити" - легендарные марсоходы, покорившие Марс. По плану они должны были прослужить несколько месяцев, но они работали долгие годы. Они поднимались по склонам гор и стенам кратеров, выдерживали пыльные бури и холодные ночи, работали со сломанными колесами. Бесстрашные исследователи, которым было суждено сделать великие открытия...
Качество видео: TVRip

Продолжительность: 01:28:02
Формат: AVI
Видео: AVC (x264), 720x400, 1839 kbps
Аудио #1: русский, дублированный [Велес], MP3 2.0, 192 kbps
Аудио #2: английский, [оригинал], MP3 2.0, 192 kbps

Рип: HDmitry-tv

Код:

Общее
Полное имя : D:\Expedition.Mars .2016. -[NatGeo]-.avi
Формат : AVI
Формат/Информация : Audio Video Interleave
Профиль формата : OpenDML
Размер файла : 1,38 Гбайт
Продолжительность : 1 ч. 28 м.
Общий поток : 2242 Кбит/сек
Программа кодирования : Lavf57.51.103
Примечание : HDmitry-tv

Видео
Идентификатор : 0
Формат : AVC
Формат/Информация : Advanced Video Codec
Профиль формата : High@L3.2
Параметр CABAC формата : Да
Параметр ReFrames формата : 2 кадра
Идентификатор кодека : H264
Продолжительность : 1 ч. 28 м.
Битрейт : 1839 Кбит/сек
Ширина : 720 пикселей
Высота : 400 пикселей
Соотношение сторон : 16:9
Режим частоты кадров : Переменный
Частота кадров : 25,000 кадров/сек
Цветовое пространство : YUV
Субдискретизация насыщенности : 4:2:0
Битовая глубина : 8 бит
Тип развёртки : Прогрессивная
Бит/(Пиксели*Кадры) : 0.255
Размер потока : 1,13 Гбайт (82%)
Библиотека кодирования : x264 core 148 r2721
Настройки программы : cabac=1 / ref=1 / deblock=1:0:0 / analyse=0x3:0x133 / me=hex / subme=5 / psy=1 / psy_rd=1.00:0.00 / mixed_ref=0 / me_range=16 / chroma_me=1 / trellis=0 / 8x8dct=1 / cqm=0 / deadzone=21,11 / fast_pskip=1 / chroma_qp_offset=0 / threads=3 / lookahead_threads=1 / sliced_threads=0 / nr=0 / decimate=1 / interlaced=0 / bluray_compat=0 / constrained_intra=0 / bframes=3 / b_pyramid=0 / b_adapt=1 / b_bias=0 / direct=0 / weightb=1 / open_gop=0 / weightp=2 / keyint=250 / keyint_min=25 / scenecut=40 / intra_refresh=0 / rc_lookahead=40 / rc=abr / mbtree=1 / bitrate=1839 / ratetol=1.0 / qcomp=0.60 / qpmin=10 / qpmax=51 / qpstep=4 / vbv_maxrate=24000 / vbv_bufsize=24000 / nal_hrd=none / filler=0 / ip_ratio=1.40 / aq=1:1.00

Аудио #1
Идентификатор : 1
Формат : MPEG Audio
Версия формата : Version 1
Профиль формата : Layer 3
Идентификатор кодека : 55
Идентификатор кодека/Подсказка : MP3
Продолжительность : 1 ч. 28 м.
Вид битрейта : Постоянный
Битрейт : 192 Кбит/сек
Каналы : 2 канала
Частота : 48,0 КГц
Метод сжатия : С потерями
Размер потока : 121 Мбайт (9%)
Выравнивание : Соединение по промежуткам
Продолжительность промежутка : 24 мс. (0,60 видеокадр)
Библиотека кодирования : LAME3.99.5ЄЄЄЄЄЄЄЄЄЄ

Аудио #2
Идентификатор : 2
Формат : MPEG Audio
Версия формата : Version 1
Профиль формата : Layer 3
Идентификатор кодека : 55
Идентификатор кодека/Подсказка : MP3
Продолжительность : 1 ч. 28 м.
Вид битрейта : Постоянный
Битрейт : 192 Кбит/сек
Каналы : 2 канала
Частота : 48,0 КГц
Метод сжатия : С потерями
Размер потока : 121 Мбайт (9%)
Выравнивание : Соединение по промежуткам
Продолжительность промежутка : 24 мс. (0,60 видеокадр)
Библиотека кодирования : LAME3.99.5
picpicpicpicpic
Для увеличения картинки щелкните мышкой по превью

Этот торрент недоступен для скачивания без регистрации, однако доступен по публичной magnet-ссылке (источники с публичных трекеров). Перед использованием ссылки прочтите, пожалуйста Пользовательское соглашение, а также как можно дольше оставайтесь на раздаче! Для того, чтобы скачать сам торрент-файл (который видит больше источников), а также для того, чтобы поблагодарить релизера, вам необходимо зарегистрироваться. Если регистрироваться лень - вы можете также попробовать скачать релиз по нашим партнерским ссылкам ниже.

[underverse.su].t74647.torrent
Трекер: Зарегистрирован   [ 30.11.2016 07:42 ]  

Статус: проверено (by ARI71 at 30.11.2016 07:45)
Поблагодарили: пока никто не поблагодарил...
Тип торрента: публичный - доступные источники с открытых трекеров: 
Размер: 1,38 GB (занимает 0,31 DVDR, для записи нужно 1 болванка DVDR/RW)
 
 

ARI71 Пол:Муж

30-Ноя-2016 07:45

Приятного всем просмотра!

Голосуй за трекер!!




Яндекс.Метрика powered by Sphinx


В Н И М А Н И Е
Сайт не распространяет и не хранит электронные версии произведений, а лишь бесплатно и без коммерческой выгоды (не требуя взамен платы,
SMS и т.д.) предоставляет доступ к создаваемому пользователями каталогу ссылок на торрент-файлы, которые содержат только списки хеш-сумм.
Убедительная просьба с жалобами обращаться напрямую к пользователю, разместившему торрент файл.

Вверх