Loading...
Error

Приближение. Владлен Бирюков [2014 г., документальный, биография, SatRip]

Статистика раздачи
Размер:  455 MB   |    Зарегистрирован:  10 дней   |    Скачан:  0 раз

Полного источника не было: Никогда

Сидов:  0  |  0 KB/s  ]   Личеров:  0  |  0 KB/s  ]

* - сиды/пиры с внешних источников

   
 
Автор Сообщение

ARI71 Пол:Муж

30-Ноя-2016 07:22

Приближение. Владлен Бирюков


Год выпуска: 2014
Жанр: документальный, биография
Страна: Россия Студия Репортер
Сюжет фильма:
Документальный фильм «Приближение», рассказывает о жизни и творчестве актёра Владлена Бирюкова. Звезда этого сибирского актера взошла после того, как он снялся в сериале «Вечный зов», и его начали узнавать не только в Новосибирске, где он служил в театре «Красный факел», но и по всей стране. В творческой биографии Владлена Бирюкова более ста театральных и около тридцати кинематографических ролей, а его последней работой в кино стала роль в короткометражном фильме «Гордый варяг», снятом в 2004 году молодым режиссером Александром Трофимкиным. Через год после выхода этого фильма актера не стало – он умер на шестьдесят четвертом году жизни.

Владле́н Его́рович Бирюко́в (7 марта 1942, Никоново — 2 сентября 2005, Бердск) — советский и российский актёр театра и кино. Народный артист Российской Федерации (2002). Лауреат Государственной премии СССР (1979).
Качество видео: SatRip

Продолжительность: 00:46:42
Формат: AVI
Видео: XviD, 704x400, 1233 kbps
Аудио: русский, MP3 2.0, 128 kbps

Рип от: Человек91

Код:

Общее
Полное имя : D:\Приближение. Владлен Бирюков.avi
Формат : AVI
Формат/Информация : Audio Video Interleave
Размер файла : 455 Мбайт
Продолжительность : 46 м.
Общий поток : 1370 Кбит/сек
Программа кодирования : VirtualDubMod 1.5.10.3 | www.virtualdub-fr.org || (build 2550/release)
Библиотека кодирования : VirtualDubMod build 2550/release

Видео
Идентификатор : 0
Формат : MPEG-4 Visual
Профиль формата : Advanced Simple@L5
Параметр BVOP формата : 2
Параметр QPel формата : Нет
Параметр GMC формата : Без точки перехода
Параметр матрицы формата : Default (MPEG)
Режим смешивания : Сжатый битовый поток
Идентификатор кодека : XVID
Идентификатор кодека/Подсказка : XviD
Продолжительность : 46 м.
Битрейт : 1233 Кбит/сек
Ширина : 704 пикселя
Высота : 400 пикселей
Соотношение сторон : 16:9
Частота кадров : 25,000 кадров/сек
Цветовое пространство : YUV
Субдискретизация насыщенности : 4:2:0
Битовая глубина : 8 бит
Тип развёртки : Прогрессивная
Метод сжатия : С потерями
Бит/(Пиксели*Кадры) : 0.175
Размер потока : 409 Мбайт (90%)
Библиотека кодирования : XviD 1.2.1 (UTC 2008-12-04)

Аудио
Идентификатор : 1
Формат : MPEG Audio
Версия формата : Version 1
Профиль формата : Layer 3
Идентификатор кодека : 55
Идентификатор кодека/Подсказка : MP3
Продолжительность : 46 м.
Вид битрейта : Постоянный
Битрейт : 128 Кбит/сек
Каналы : 2 канала
Частота : 44,1 КГц
Метод сжатия : С потерями
Размер потока : 42,5 Мбайт (9%)
Выравнивание : Разделение по промежуткам
Продолжительность промежутка : 40 мс. (1,00 видеокадр)
Время предзагрузки промежутка : 500 мс.
Библиотека кодирования : LAME3.99r
Настройки программы : -m s -V 4 -q 2 -lowpass 17 -b 128
picpicpicpicpic
Для увеличения картинки щелкните мышкой по превью

Этот торрент недоступен для скачивания без регистрации, однако доступен по публичной magnet-ссылке (источники с публичных трекеров). Перед использованием ссылки прочтите, пожалуйста Пользовательское соглашение, а также как можно дольше оставайтесь на раздаче! Для того, чтобы скачать сам торрент-файл (который видит больше источников), а также для того, чтобы поблагодарить релизера, вам необходимо зарегистрироваться. Если регистрироваться лень - вы можете также попробовать скачать релиз по нашим партнерским ссылкам ниже.

[underverse.su].t74646.torrent
Трекер: Зарегистрирован   [ 30.11.2016 07:22 ]  

Статус: проверено (by ARI71 at 30.11.2016 07:25)
Поблагодарили: пока никто не поблагодарил...
Тип торрента: публичный - доступные источники с открытых трекеров: 
Размер: 455 MB (занимает 0,1 DVDR, для записи нужно 1 болванка DVDR/RW)
 
 

Яндекс.Метрика powered by Sphinx


В Н И М А Н И Е
Сайт не распространяет и не хранит электронные версии произведений, а лишь бесплатно и без коммерческой выгоды (не требуя взамен платы,
SMS и т.д.) предоставляет доступ к создаваемому пользователями каталогу ссылок на торрент-файлы, которые содержат только списки хеш-сумм.
Убедительная просьба с жалобами обращаться напрямую к пользователю, разместившему торрент файл.

Вверх