Loading...
Error

Пластмассовая королева (1-2 серии из 2) (Сергей Гиргель) [2016 г., мелодрама, HDTVRip]

Статистика раздачи
Размер:  2,73 GB   |    Зарегистрирован:  12 дней   |    Скачан:  7 раз
Сидов:  1  |  2 KB/s  ]   Личеров:  0  |  0 KB/s  ]

* - сиды/пиры с внешних источников

   
 
Автор Сообщение

makkol Пол:Муж

27-Ноя-2016 22:00

Пластмассовая королева


Год выпуска: 2016
Жанр: мелодрама
Производство: Россия ["Мега Продакшн"]
Режиссер: Сергей Гиргель
В ролях: Ольга Дятловская, Дарья Пармененкова, Елизавета Фалей, Алиса Признякова, Ефим Петрунин, Иван Николаев, Марина Москвина, Сергей Власов, Наталья Капитонова, Руслан Чернецкий, Андрей Карако, Анатолий Терпицкий
Сюжет фильма:
Маше Громовой 17 лет. Она – «пластмассовая принцесса» в небольшом провинциальном городке. Так все ее здесь зовут. Ведь отец Маши – владелец крупного завода по производству пластика. При этом девушке лютой завистью завидуют две подружки – Света и Анжела. Маша, несмотря на свой «статус», влюблена в простого парня Лешу, что совсем не по душе Громову. Родители героини обманом разлучают ее с любимым и отправляют учиться в столицу. Проходит время. Повзрослевшая Маша возвращается в родной городок и обнаруживает там большие перемены. Отец стал очень прохладно общаться с матерью, грубит ей. Да к тому же выгнал с завода пожилого и мудрого управляющего, а вместо него взял молодого, хлыщеватого Глеба. Этот Глеб, узнав, кто такая Маша, начинает за ней ухаживать и явно набивается в кавалеры. Анжела работает на том же заводе – секретаршей, строит всем глазки. А Леша живет с мамой и… со Светой. Со стороны они выглядят, как счастливая семья.

Качество видео: HDTVRip

Продолжительность: 2 x ~ 01:30:00
Формат: AVI
Видео: XviD, 720x400 (16:9), 25.000 fps, 1908 kbps
Аудио: русский, оригинал, AC3 2.0, 48 kHz, 192 kbps

Код:

Формат                                   : AVI
Формат/Информация                        : Audio Video Interleave
Размер файла                             : 1,37 Гбайт
Продолжительность                        : 1 ч. 32 м.
Общий поток                              : 2110 Кбит/сек
Программа кодирования                    : VirtualDubMod 1.5.10.3 | www.virtualdub-fr.org || (build 2550/release)
Библиотека кодирования                   : VirtualDubMod build 2550/release

Видео
Идентификатор                            : 0
Формат                                   : MPEG-4 Visual
Профиль формата                          : Advanced Simple@L5
Параметр BVOP формата                    : 1
Параметр QPel формата                    : Нет
Параметр GMC формата                     : Без точки перехода
Параметр матрицы формата                 : Выборочная
Идентификатор кодека                     : XVID
Идентификатор кодека/Подсказка           : XviD
Продолжительность                        : 1 ч. 32 м.
Битрейт                                  : 1908 Кбит/сек
Ширина                                   : 720 пикселей
Высота                                   : 400 пикселей
Соотношение сторон                       : 16:9
Частота кадров                           : 25,000 кадров/сек
Цветовое пространство                    : YUV
Субдискретизация насыщенности            : 4:2:0
Битовая глубина                          : 8 бит
Тип развёртки                            : Прогрессивная
Метод сжатия                             : С потерями
Бит/(Пиксели*Кадры)                      : 0.265
Размер потока                            : 1,24 Гбайт (90%)
Библиотека кодирования                   : XviD 73

Аудио
Идентификатор                            : 1
Формат                                   : AC-3
Формат/Информация                        : Audio Coding 3
Расширение режима                        : CM (complete main)
Параметр Endianness формата              : Big
Идентификатор кодека                     : 2000
Продолжительность                        : 1 ч. 32 м.
Вид битрейта                             : Постоянный
Битрейт                                  : 192 Кбит/сек
Каналы                                   : 2 канала
Расположение каналов                     : Front: L R
Частота                                  : 48,0 КГц
Частота кадров                           : 31,250 кадров/сек (1536 spf)
Метод сжатия                             : С потерями
Размер потока                            : 127 Мбайт (9%)
Выравнивание                             : Разделение по промежуткам
Продолжительность промежутка             : 40  мс. (1,00 видеокадр)
Время предзагрузки промежутка            : 500  мс.
Релиз от:

picpicpicpicpic
Для увеличения картинки щелкните мышкой по превью

Этот торрент недоступен для скачивания без регистрации, однако доступен по публичной magnet-ссылке (источники с публичных трекеров). Перед использованием ссылки прочтите, пожалуйста Пользовательское соглашение, а также как можно дольше оставайтесь на раздаче! Для того, чтобы скачать сам торрент-файл (который видит больше источников), а также для того, чтобы поблагодарить релизера, вам необходимо зарегистрироваться. Если регистрироваться лень - вы можете также попробовать скачать релиз по нашим партнерским ссылкам ниже.

[underverse.su].t74541.torrent
Трекер: Зарегистрирован   [ 27.11.2016 22:00 ]  

Статус: проверено (by makkol at 27.11.2016 22:12)
Поблагодарили: пока никто не поблагодарил...
Тип торрента: публичный - доступные источники с открытых трекеров: 
Размер: 2,73 GB (занимает 0,62 DVDR, для записи нужно 1 болванка DVDR/RW)
 
 

Яндекс.Метрика powered by Sphinx


В Н И М А Н И Е
Сайт не распространяет и не хранит электронные версии произведений, а лишь бесплатно и без коммерческой выгоды (не требуя взамен платы,
SMS и т.д.) предоставляет доступ к создаваемому пользователями каталогу ссылок на торрент-файлы, которые содержат только списки хеш-сумм.
Убедительная просьба с жалобами обращаться напрямую к пользователю, разместившему торрент файл.

Вверх