Loading...
Error

Тихие зори Станислава Ростоцкого (Константин Голенчик) [2016 г., документальный, биография, кинематограф, IPTVRip]

Статистика раздачи
Размер:  468 MB   |    Зарегистрирован:  1 месяц 23 дня   |    Скачан:  1 раз

Полного источника не было: 1 месяц 21 день

Сидов:  0  |  0 KB/s  ]   Личеров:  0  |  0 KB/s  ]

* - сиды/пиры с внешних источников

   
 
Автор Сообщение

ARI71 Пол:Муж

27-Ноя-2016 12:47

Тихие зори Станислава Ростоцкого


Год выпуска: 2016
Жанр: документальный, биография, кинематограф
Страна: Россия ГТРК "Культура"
Режиссер: Константин Голенчик
Сюжет фильма:
Первый показ фильма за рубежом в Венеции произвел настоящий фурор. В кинотеатре "Россия" очередь стояла в течение месяца. А через год после выхода на экран картина была номинирована на премию "Оскар". Но прежде всего "А зори здесь тихие" - это негромкий разговор о самом главном. Этот фильм - благодарность всем женщинам, которые пошли на войну. О том, какими средствами эта исповедальная интонация достигалась, за счет каких жертв, усилий и чувств на экране создается честное кино - речь в фильме. Автор и ведущий - Александр Казакевич.

Станисла́в Ио́сифович Росто́цкий (1922 — 2001) — советский и российский кинорежиссёр, актёр, сценарист, педагог. Народный артист СССР (1974). Лауреат Ленинской (1980) и двух Государственный премий СССР (1970, 1975).
Качество видео: IPTVRip

Продолжительность: 00:38:41
Формат: AVI
Видео: XviD, 704x384, 1489 kbps
Аудио: русский, AC3 2.0, 192 kbps

Рип: Печаль (Pechalj)

Код:

Общее
Полное имя : D:\Тихие зори Станислава Ростоцкого.2016.IPTVRip.avi
Формат : AVI
Формат/Информация : Audio Video Interleave
Размер файла : 468 Мбайт
Продолжительность : 38 м.
Общий поток : 1690 Кбит/сек
Программа кодирования : VirtualDubMod 1.5.10.3 | www.virtualdub-fr.org || (build 2550/release)
Библиотека кодирования : VirtualDubMod build 2550/release

Видео
Идентификатор : 0
Формат : MPEG-4 Visual
Профиль формата : Advanced Simple@L5
Параметр BVOP формата : 1
Параметр QPel формата : Нет
Параметр GMC формата : Без точки перехода
Параметр матрицы формата : Выборочная
Идентификатор кодека : XVID
Идентификатор кодека/Подсказка : XviD
Продолжительность : 38 м.
Битрейт : 1489 Кбит/сек
Ширина : 704 пикселя
Высота : 384 пикселя
Соотношение сторон : 1,85:1
Частота кадров : 25,000 кадров/сек
Цветовое пространство : YUV
Субдискретизация насыщенности : 4:2:0
Битовая глубина : 8 бит
Тип развёртки : Прогрессивная
Метод сжатия : С потерями
Бит/(Пиксели*Кадры) : 0.220
Размер потока : 412 Мбайт (88%)
Библиотека кодирования : XviD 73

Аудио
Идентификатор : 1
Формат : AC-3
Формат/Информация : Audio Coding 3
Расширение режима : CM (complete main)
Параметр Endianness формата : Big
Идентификатор кодека : 2000
Продолжительность : 38 м.
Вид битрейта : Постоянный
Битрейт : 192 Кбит/сек
Каналы : 2 канала
Расположение каналов : Front: L R
Частота : 48,0 КГц
Частота кадров : 31,250 кадров/сек (1536 spf)
Метод сжатия : С потерями
Размер потока : 53,1 Мбайт (11%)
Выравнивание : Разделение по промежуткам
Продолжительность промежутка : 40 мс. (1,00 видеокадр)
Время предзагрузки промежутка : 500 мс.
picpicpicpicpic
Для увеличения картинки щелкните мышкой по превью

Этот торрент недоступен для скачивания без регистрации, однако доступен по публичной magnet-ссылке (источники с публичных трекеров). Перед использованием ссылки прочтите, пожалуйста Пользовательское соглашение, а также как можно дольше оставайтесь на раздаче! Для того, чтобы скачать сам торрент-файл (который видит больше источников), а также для того, чтобы поблагодарить релизера, вам необходимо зарегистрироваться. Если регистрироваться лень - вы можете также попробовать скачать релиз по нашим партнерским ссылкам ниже.

[underverse.su].t74528.torrent
Трекер: Зарегистрирован   [ 27.11.2016 12:47 ]  

Статус: проверено (by ARI71 at 27.11.2016 12:49)
Поблагодарили: пока никто не поблагодарил...
Тип торрента: публичный - доступные источники с открытых трекеров: 
Размер: 468 MB (занимает 0,1 DVDR, для записи нужно 1 болванка DVDR/RW)
 
 

Яндекс.Метрика powered by Sphinx


В Н И М А Н И Е
Сайт не распространяет и не хранит электронные версии произведений, а лишь бесплатно и без коммерческой выгоды (не требуя взамен платы,
SMS и т.д.) предоставляет доступ к создаваемому пользователями каталогу ссылок на торрент-файлы, которые содержат только списки хеш-сумм.
Убедительная просьба с жалобами обращаться напрямую к пользователю, разместившему торрент файл.

Вверх