Loading...
Error

Открытая Индия / Discoveries... India (3 серии из 3) / (Джим Уотт, Келли Уотт) [2008 г., документальный, туризм, путешествие, HDTVRip 720p] VO

Статистика раздачи
Размер:  4,32 GB   |    Зарегистрирован:  12 дней   |    Скачан:  1 раз

Полного источника не было: 11 часов

Сидов:  0  |  0 KB/s  ]   Личеров:  0  |  0 KB/s  ]

* - сиды/пиры с внешних источников

   
 
Автор Сообщение

ARI71 Пол:Муж

27-Ноя-2016 10:48

Открытая Индия / Discoveries... India (3 серии из 3)


Год выпуска: 2008
Жанр: документальный, туризм, путешествие
Страна: США Bennett-Watt HD Productions, Inc
Режиссер: Джим Уотт, Келли Уотт
Сюжет фильма:
Совершите путешествие по стране, которая считается колыбелью древней цивилизации, родиной неповторимых танцев, шахмат и философских систем. Место, куда отправляются, чтобы узнать истину, достичь духовного совершенства или просто из любопытства.
Качество видео: HDTVRip 720p

Продолжительность: 3 x ~00:50:00
Формат: MKV
Видео: AVC (x264), 1280x720, ~3907 kbps
Аудио: русский, одноголосый [профессиональный], MP2 2.0, ~192 kbps

Автор рипа - LLIukO

Код:

Общее
Уникальный идентификатор : 187603548450463545486594463550681690803 (0x8D232110DA580A9B94B7B846DBC4B2B3)
Полное имя : D:\Discoveries.India\Discoveries.India.Golden_Triangle.2008.HDRip.h264.1280x720.mkv
Формат : Matroska
Версия формата : Version 2
Размер файла : 1,44 Гбайт
Продолжительность : 50 м.
Общий поток : 4101 Кбит/сек
Дата кодирования : UTC 2010-03-11 18:35:46
Программа кодирования : mkvmerge v3.0.0 ('Hang up your Hang-Ups') built on Jan 6 2010 22:49:38
Библиотека кодирования : libebml v0.7.9 + libmatroska v0.8.1

Видео
Идентификатор : 1
Формат : AVC
Формат/Информация : Advanced Video Codec
Профиль формата : High@L5
Параметр CABAC формата : Да
Параметр ReFrames формата : 11 кадров
Идентификатор кодека : V_MPEG4/ISO/AVC
Продолжительность : 50 м.
Битрейт : 3907 Кбит/сек
Ширина : 1280 пикселей
Высота : 720 пикселей
Соотношение сторон : 16:9
Режим частоты кадров : Постоянный
Частота кадров : 25,000 кадров/сек
Цветовое пространство : YUV
Субдискретизация насыщенности : 4:2:0
Битовая глубина : 8 бит
Тип развёртки : Прогрессивная
Бит/(Пиксели*Кадры) : 0.170
Размер потока : 1,34 Гбайт (93%)
Библиотека кодирования : x264 core 79 r1342kMod e8501ef
Настройки программы : cabac=1 / ref=11 / deblock=1:-2:-1 / analyse=0x3:0x133 / me=umh / subme=10 / psy=1 / psy_rd=1.0:0.2 / mixed_ref=1 / me_range=24 / chroma_me=1 / trellis=2 / 8x8dct=1 / cqm=0 / deadzone=21,11 / chroma_qp_offset=-3 / threads=6 / nr=0 / decimate=1 / mbaff=0 / constrained_intra=0 / bframes=4 / b_pyramid=0 / b_adapt=2 / b_bias=0 / direct=3 / wpredb=1 / wpredp=2 / keyint=250 / keyint_min=25 / scenecut=40 / rc_lookahead=60 / rc=2pass / mbtree=1 / bitrate=3907 / ratetol=1.0 / qcomp=0.60 / qpmin=10 / qpmax=51 / qpstep=4 / cplxblur=20.0 / qblur=0.5 / ip_ratio=1.40 / aq=1:1.00
Default : Да
Forced : Нет

Аудио
Идентификатор : 2
Формат : MPEG Audio
Версия формата : Version 1
Профиль формата : Layer 2
Идентификатор кодека : A_MPEG/L2
Идентификатор кодека/Подсказка : MP2
Продолжительность : 50 м.
Вид битрейта : Постоянный
Битрейт : 192 Кбит/сек
Каналы : 2 канала
Частота : 48,0 КГц
Метод сжатия : С потерями
Размер потока : 69,0 Мбайт (5%)
Default : Да
Forced : Нет
1. Страна Махарадж / Land Of The Maharadjas
Мы начинаем путешествие по Индии. И первым делом посетим не местную фабрику грёз Болливуд, а древние храмы и дворцы магараджей.

2. Сельские сокровища / RuralTraesures
Индия – это не только Болливуд, большие города и дворцы магараджей. Но ещё древние храмы и святыни, рисовые поля, плантации сахарного тростника и бескрайние пастбища в долинах рек, где с незапамятных времён бродят священные коровы.

3. Золотой треугольник / Golden Triangle
Мы посетим три удивительных города: густонаселённый Дели, романтичный "розовый город" Джайпур, где нас ждёт Дворец Ветров. И конечно, жемчужину долины Ганга Агру, в которой находится знаменитый Тадж Махал.
picpicpicpicpic
Для увеличения картинки щелкните мышкой по превью

Этот торрент недоступен для скачивания без регистрации, однако доступен по публичной magnet-ссылке (источники с публичных трекеров). Перед использованием ссылки прочтите, пожалуйста Пользовательское соглашение, а также как можно дольше оставайтесь на раздаче! Для того, чтобы скачать сам торрент-файл (который видит больше источников), а также для того, чтобы поблагодарить релизера, вам необходимо зарегистрироваться. Если регистрироваться лень - вы можете также попробовать скачать релиз по нашим партнерским ссылкам ниже.

[underverse.su].t74522.torrent
Трекер: Зарегистрирован   [ 27.11.2016 10:48 ]  

Статус: проверено (by ARI71 at 27.11.2016 10:52)
Поблагодарили: пока никто не поблагодарил...
Тип торрента: публичный - доступные источники с открытых трекеров: 
Размер: 4,32 GB (занимает 0,99 DVDR, для записи нужно 1 болванка DVDR/RW)
 
 

ARI71 Пол:Муж

27-Ноя-2016 10:49

Приятного всем просмотра!

Голосуй за трекер!!




Яндекс.Метрика powered by Sphinx


В Н И М А Н И Е
Сайт не распространяет и не хранит электронные версии произведений, а лишь бесплатно и без коммерческой выгоды (не требуя взамен платы,
SMS и т.д.) предоставляет доступ к создаваемому пользователями каталогу ссылок на торрент-файлы, которые содержат только списки хеш-сумм.
Убедительная просьба с жалобами обращаться напрямую к пользователю, разместившему торрент файл.

Вверх