Loading...
Error

Непобедимый Мэнни Пакьяо / Kid Kulafu (Пол Сориано) [2015 г., драма, биография, спорт, WEB-DLRip] Dub (iTunes)

Статистика раздачи
Размер:  1,46 GB   |    Зарегистрирован:  14 дней   |    Скачан:  4 раза

Полного источника не было: 2 дня 13 часов

Сидов:  0  |  0 KB/s  ]   Личеров:  0  |  0 KB/s  ]

* - сиды/пиры с внешних источников

   
 
Автор Сообщение

makkol Пол:Муж

26-Ноя-2016 09:17

Непобедимый Мэнни Пакьяо / Kid Kulafu


Год выпуска: 2015
Жанр: драма, биография, спорт
Производство: Филиппины [Esther 4:14, TEN17P, ABS-CBN Film Productions]
Режиссер: Пол Сориано
В ролях: Роберт Вильяр, Алессандра Де Росси, Сесар Монтано, Алекс Винсент Медина, Джейк Макапагал, Халил Рамос, Йомари Ангелис, Кокой де Сантос, Як Роберто, Иги Бой Флорес
Сюжет фильма:
Весь мир замирает, чтобы стоя приветствовать легенду мирового бокса… Когда он начинал свою карьеру, его называли просто «филиппинцем». А теперь Мэнни Пакьяо — непревзойденный боксер современности — единственный, кто сумел стать чемпионом мира в восьми весовых категориях!

  • Мировая премьера: 15 апреля 2015
  • Российская премьера: 3 ноября 2016


Качество видео: WEB-DLRip

Продолжительность: 01:43:48
Формат: AVI
Видео: XviD, 720x304 (2.35:1), 25.000 fps, 1617 kbps
Аудио: русский, дублированный (iTunes), AC3 5.1, 48 kHz, 384 kbps

Код:

Формат                                   : AVI
Формат/Информация                        : Audio Video Interleave
Размер файла                             : 1,46 Гбайт
Продолжительность                        : 1 ч. 43 м.
Общий поток                              : 2011 Кбит/сек
Программа кодирования                    : VirtualDubMod 1.5.10.2 (build 2540/release)

Видео
Идентификатор                            : 0
Формат                                   : MPEG-4 Visual
Профиль формата                          : Advanced Simple@L5
Параметр BVOP формата                    : 2
Параметр QPel формата                    : Нет
Параметр GMC формата                     : Без точки перехода
Параметр матрицы формата                 : Default (MPEG)
Идентификатор кодека                     : XVID
Идентификатор кодека/Подсказка           : XviD
Продолжительность                        : 1 ч. 43 м.
Битрейт                                  : 1617 Кбит/сек
Ширина                                   : 720 пикселей
Высота                                   : 304 пикселя
Соотношение сторон                       : 2,35:1
Частота кадров                           : 25,000 кадров/сек
Цветовое пространство                    : YUV
Субдискретизация насыщенности            : 4:2:0
Битовая глубина                          : 8 бит
Тип развёртки                            : Прогрессивная
Метод сжатия                             : С потерями
Бит/(Пиксели*Кадры)                      : 0.296
Размер потока                            : 1,17 Гбайт (80%)
Библиотека кодирования                   : XviD 1.2.1 (UTC 2008-12-04)

Аудио
Идентификатор                            : 1
Формат                                   : AC-3
Формат/Информация                        : Audio Coding 3
Расширение режима                        : CM (complete main)
Параметр Endianness формата              : Big
Идентификатор кодека                     : 2000
Продолжительность                        : 1 ч. 43 м.
Вид битрейта                             : Постоянный
Битрейт                                  : 384 Кбит/сек
Каналы                                   : 6 каналов
Расположение каналов                     : Front: L C R, Side: L R, LFE
Частота                                  : 48,0 КГц
Частота кадров                           : 31,250 кадров/сек (1536 spf)
Метод сжатия                             : С потерями
Задержка видео                           : 1 мс.
Размер потока                            : 285 Мбайт (19%)
Выравнивание                             : Разделение по промежуткам
Продолжительность промежутка             : 40  мс. (1,00 видеокадр)
Время предзагрузки промежутка            : 500  мс.


picpicpicpicpic
Для увеличения картинки щелкните мышкой по превью

Этот торрент недоступен для скачивания без регистрации, однако доступен по публичной magnet-ссылке (источники с публичных трекеров). Перед использованием ссылки прочтите, пожалуйста Пользовательское соглашение, а также как можно дольше оставайтесь на раздаче! Для того, чтобы скачать сам торрент-файл (который видит больше источников), а также для того, чтобы поблагодарить релизера, вам необходимо зарегистрироваться. Если регистрироваться лень - вы можете также попробовать скачать релиз по нашим партнерским ссылкам ниже.

[underverse.su].t74449.torrent
Трекер: Зарегистрирован   [ 26.11.2016 09:17 ]  

Статус: T временная (by makkol at 26.11.2016 09:24)
Поблагодарили: пока никто не поблагодарил...
Тип торрента: публичный - доступные источники с открытых трекеров: 
Размер: 1,46 GB (занимает 1/3 DVDR, для записи нужно 1 болванка DVDR/RW)
 
 
Похожие темы
Форум Тема Автор Торрент Отв. Посл. сооб.
T Зарубежное кино [DVDRip, Low-Res HDRip, и т.д.] Непобедимый Мэнни Пакьяо / Kid Kulafu (Пол Сориано / Paul Soriano) [2015 г., драма, биография, спорт, WEB-DLRip] Dub (чистый звук) 90ytr90
813 | 28

0 | 191

8

06.11.2016 19:15

Зарубежное кино [DVDRip, Low-Res HDRip, и т.д.] Непобедимый / Unbeatable / ММА / Ji Zhan (Данте Лам) [2013 г., боевик, драма, спорт, HDRip] VO + Original + Sub ( Rus) Су-34
3 | 0

1 | 483

10

29.12.2013 13:03

Наше кино [DVDRip, Low-Res HDRip, и т.д.] Непобедимый (Олег Погодин) [2008 г., боевик, DVDRip] windapr
1 | 0

2 | 1835

50

03.09.2013 20:41

# Зарубежное кино [HDDVDRip / BDRip / WEB-DL / HDTV 1080/720р] Непобедимый Мэнни Пакьяо / Kid Kulafu (Пол Сориано) [2015 г., драма, биография, спорт, WEB-DL 1080p] Dub (iTunes) makkol
129 | 2

0 | 150

7

26.11.2016 09:23

T Зарубежное кино [HDDVDRip / BDRip / WEB-DL / HDTV 1080/720р] Непобедимый Мэнни Пакьяо / Kid Kulafu (Пол Сориано / Paul Soriano) [2015 г., драма, биография, спорт, WEB-DL 1080p] Dub (чистый звук) 90ytr90
120 | 3

0 | 180

4

06.11.2016 19:21

Наше кино [DVD / HDDVD / BD / Remux] Непобедимый / Man of East (Олег Погодин) [2008 г., боевик, Blu-ray, 1080p] Jimmy
0 | 0

0 | 1028

12

07.12.2012 17:02

Архив Непобедимый / Man Of East (Олег Погодин) [2008 г., боевик, BDRip] Паукан
0 | 0

1 | 949

0

05.11.2011 14:45


Яндекс.Метрика powered by Sphinx


В Н И М А Н И Е
Сайт не распространяет и не хранит электронные версии произведений, а лишь бесплатно и без коммерческой выгоды (не требуя взамен платы,
SMS и т.д.) предоставляет доступ к создаваемому пользователями каталогу ссылок на торрент-файлы, которые содержат только списки хеш-сумм.
Убедительная просьба с жалобами обращаться напрямую к пользователю, разместившему торрент файл.

Вверх