Loading...
Error

Зимняя рыбалка на реке Вычегда (Олег Печерский) [2012 г., документальный, рыбалка, SatRip]

Статистика раздачи
Размер:  471 MB   |    Зарегистрирован:  7 дней   |    Скачан:  3 раза

Полного источника не было: 9 часов

Сидов:  0  |  0 KB/s  ]   Личеров:  0  |  0 KB/s  ]

* - сиды/пиры с внешних источников

   
 
Автор Сообщение

ARI71 Пол:Муж

25-Ноя-2016 17:03

Зимняя рыбалка на реке Вычегда


Год выпуска: 2012
Жанр: документальный, рыбалка
Страна: Россия Russian Travel Guide TV (RTG TV)
Режиссер: Олег Печерский
Сюжет фильма:
В Республике Коми зима длится полгода. Все это время многочисленные реки и озера скованы льдом. Но любители рыбалки не прекращают лов ни на день. Самые удачливые и опытные зимой добывают рыбы ничуть не меньше, чем летом. Чтобы убедиться в этом, достаточно побывать на соревнованиях по подледному лову на реке Вычегда - одной из крупнейших в Коми. Ведущий Андрей Иванов стал свидетелем увлекательных и веселых состязаний, узнал о тонкостях зимней рыбалки на Вычегде, а также увидел приготовление ухи по традиционному коми рецепту.
Качество видео: SatRip

Продолжительность: 00:33:48
Формат: AVI
Видео: XviD, 704x528, 1811 kbps
Аудио: русский, MP3 2.0, 128 kbps

Код:

Общее
Полное имя : D:\Zimnjaja.rybalka.na.reke.Vychegda.2012.XviD.SATRip.Zanaves.avi
Формат : AVI
Формат/Информация : Audio Video Interleave
Размер файла : 471 Мбайт
Продолжительность : 33 м.
Общий поток : 1949 Кбит/сек
Программа кодирования : VirtualDubMod 1.5.10.2 (build 2540/release)
Библиотека кодирования : VirtualDubMod build 2540/release

Видео
Идентификатор : 0
Формат : MPEG-4 Visual
Профиль формата : Advanced Simple@L5
Параметр BVOP формата : 2
Параметр QPel формата : Нет
Параметр GMC формата : Без точки перехода
Параметр матрицы формата : Default (H.263)
Режим смешивания : Сжатый битовый поток
Идентификатор кодека : XVID
Идентификатор кодека/Подсказка : XviD
Продолжительность : 33 м.
Битрейт : 1811 Кбит/сек
Ширина : 704 пикселя
Высота : 528 пикселей
Соотношение сторон : 4:3
Частота кадров : 25,000 кадров/сек
Цветовое пространство : YUV
Субдискретизация насыщенности : 4:2:0
Битовая глубина : 8 бит
Тип развёртки : Прогрессивная
Метод сжатия : С потерями
Бит/(Пиксели*Кадры) : 0.195
Размер потока : 438 Мбайт (93%)
Библиотека кодирования : XviD 64

Аудио
Идентификатор : 1
Формат : MPEG Audio
Версия формата : Version 1
Профиль формата : Layer 3
Режим : Joint stereo
Расширение режима : MS Stereo
Идентификатор кодека : 55
Идентификатор кодека/Подсказка : MP3
Продолжительность : 33 м.
Вид битрейта : Постоянный
Битрейт : 128 Кбит/сек
Каналы : 2 канала
Частота : 48,0 КГц
Метод сжатия : С потерями
Размер потока : 30,9 Мбайт (7%)
Выравнивание : Соединение по промежуткам
Продолжительность промежутка : 40 мс. (1,00 видеокадр)
Время предзагрузки промежутка : 504 мс.
picpicpicpicpic
Для увеличения картинки щелкните мышкой по превью

Этот торрент недоступен для скачивания без регистрации, однако доступен по публичной magnet-ссылке (источники с публичных трекеров). Перед использованием ссылки прочтите, пожалуйста Пользовательское соглашение, а также как можно дольше оставайтесь на раздаче! Для того, чтобы скачать сам торрент-файл (который видит больше источников), а также для того, чтобы поблагодарить релизера, вам необходимо зарегистрироваться. Если регистрироваться лень - вы можете также попробовать скачать релиз по нашим партнерским ссылкам ниже.

[underverse.su].t74408.torrent
Трекер: Зарегистрирован   [ 25.11.2016 17:03 ]  

Статус: проверено (by ARI71 at 25.11.2016 17:05)
Поблагодарили: пока никто не поблагодарил...
Тип торрента: публичный - доступные источники с открытых трекеров: 
Размер: 471 MB (занимает 0,11 DVDR, для записи нужно 1 болванка DVDR/RW)
 
 
Похожие темы
Форум Тема Автор Торрент Отв. Посл. сооб.
Симуляторы жизни Зимняя рыбалка / Pro Pilkki 2 (V-0.8) [2009 г., симулятор зимней рыбалки.] ENG kotiar
0 | 0

0 | 4731

7

01.11.2011 19:22

ARI71 Пол:Муж

25-Ноя-2016 17:06

Приятного всем просмотра!

Голосуй за трекер!!




Яндекс.Метрика powered by Sphinx


В Н И М А Н И Е
Сайт не распространяет и не хранит электронные версии произведений, а лишь бесплатно и без коммерческой выгоды (не требуя взамен платы,
SMS и т.д.) предоставляет доступ к создаваемому пользователями каталогу ссылок на торрент-файлы, которые содержат только списки хеш-сумм.
Убедительная просьба с жалобами обращаться напрямую к пользователю, разместившему торрент файл.

Вверх