Loading...
Error

Охота на щуку в лиманах Приморско-Ахтарска (Евгений Бугаевский) [2011 г., документальный, рыбалка, SatRip]

Статистика раздачи
Размер:  301 MB   |    Зарегистрирован:  14 дней   |    Скачан:  3 раза

Полного источника не было: 7 дней

Сидов:  0  |  0 KB/s  ]   Личеров:  0  |  0 KB/s  ]

* - сиды/пиры с внешних источников

   
 
Автор Сообщение

ARI71 Пол:Муж

25-Ноя-2016 16:22

Охота на щуку в лиманах Приморско-Ахтарска


Год выпуска: 2011
Жанр: документальный, рыбалка
Страна: Россия Russian Travel Guide TV (RTG TV)
Режиссер: Евгений Бугаевский
В ролях: Дмитрий Дроздов
Сюжет фильма:
На юге России в районе города Приморско-Ахтарск 90 гектаров занимают плавни и лиманы. Эти места давно облюбовали рыбаки: здесь водятся сомы, судаки, сазаны и ловить их можно в любой сезон. Но с берега порыбачить не удастся из-за камыша, поэтому нужно выходить в открытую воду. Славятся лиманы Приморско-Ахтарска и отличной щукой. На охоту за хищником отправился ведущий Станислав Сальников. Вес средней щуки в лиманах Приморско-Ахтарска – два килограмма, а трофейными экземплярами считаются рыбы от трех килограммов. Кроме того, местная щука стала основой необычного блюда. Рецептом с ведущим телеканала Russian Travel Guide TV поделились местные жители.
Качество видео: SatRip

Продолжительность: 00:27:05
Формат: AVI
Видео: XviD, 704x384, 1415 kbps
Аудио: русский, MP3 2.0, 128 kbps

Код:

Общее
Полное имя : D:\Ohota.na.shhuku.v.limanah.Primorsko-Ahtarska.2011.XviD.SATRip.Zanaves.avi
Формат : AVI
Формат/Информация : Audio Video Interleave
Размер файла : 301 Мбайт
Продолжительность : 27 м.
Общий поток : 1552 Кбит/сек
Программа кодирования : VirtualDubMod 1.5.10.2 (build 2540/release)
Библиотека кодирования : VirtualDubMod build 2540/release

Видео
Идентификатор : 0
Формат : MPEG-4 Visual
Профиль формата : Advanced Simple@L5
Параметр BVOP формата : 2
Параметр QPel формата : Нет
Параметр GMC формата : Без точки перехода
Параметр матрицы формата : Default (H.263)
Режим смешивания : Сжатый битовый поток
Идентификатор кодека : XVID
Идентификатор кодека/Подсказка : XviD
Продолжительность : 27 м.
Битрейт : 1415 Кбит/сек
Ширина : 704 пикселя
Высота : 384 пикселя
Соотношение сторон : 1,85:1
Частота кадров : 25,000 кадров/сек
Цветовое пространство : YUV
Субдискретизация насыщенности : 4:2:0
Битовая глубина : 8 бит
Тип развёртки : Прогрессивная
Метод сжатия : С потерями
Бит/(Пиксели*Кадры) : 0.209
Размер потока : 274 Мбайт (91%)
Библиотека кодирования : XviD 64

Аудио
Идентификатор : 1
Формат : MPEG Audio
Версия формата : Version 1
Профиль формата : Layer 3
Режим : Joint stereo
Расширение режима : MS Stereo
Идентификатор кодека : 55
Идентификатор кодека/Подсказка : MP3
Продолжительность : 27 м.
Вид битрейта : Постоянный
Битрейт : 128 Кбит/сек
Каналы : 2 канала
Частота : 48,0 КГц
Метод сжатия : С потерями
Размер потока : 24,8 Мбайт (8%)
Выравнивание : Соединение по промежуткам
Продолжительность промежутка : 40 мс. (1,00 видеокадр)
Время предзагрузки промежутка : 504 мс.
picpicpicpic
Для увеличения картинки щелкните мышкой по превью

Этот торрент недоступен для скачивания без регистрации, однако доступен по публичной magnet-ссылке (источники с публичных трекеров). Перед использованием ссылки прочтите, пожалуйста Пользовательское соглашение, а также как можно дольше оставайтесь на раздаче! Для того, чтобы скачать сам торрент-файл (который видит больше источников), а также для того, чтобы поблагодарить релизера, вам необходимо зарегистрироваться. Если регистрироваться лень - вы можете также попробовать скачать релиз по нашим партнерским ссылкам ниже.

[underverse.su].t74405.torrent
Трекер: Зарегистрирован   [ 25.11.2016 16:22 ]  

Статус: проверено (by ARI71 at 25.11.2016 16:24)
Поблагодарили: пока никто не поблагодарил...
Тип торрента: публичный - доступные источники с открытых трекеров: 
Размер: 301 MB (занимает 0,07 DVDR, для записи нужно 1 болванка DVDR/RW)
 
 

ARI71 Пол:Муж

25-Ноя-2016 16:22

Приятного всем просмотра!

Голосуй за трекер!!




Яндекс.Метрика powered by Sphinx


В Н И М А Н И Е
Сайт не распространяет и не хранит электронные версии произведений, а лишь бесплатно и без коммерческой выгоды (не требуя взамен платы,
SMS и т.д.) предоставляет доступ к создаваемому пользователями каталогу ссылок на торрент-файлы, которые содержат только списки хеш-сумм.
Убедительная просьба с жалобами обращаться напрямую к пользователю, разместившему торрент файл.

Вверх