Loading...
Error

Ловля леща на Дону (Игорь Чернышов) [2012 г., документальный, рыбалка, SatRip]

Статистика раздачи
Размер:  401 MB   |    Зарегистрирован:  13 дней   |    Скачан:  3 раза

Полного источника не было: 6 дней

Сидов:  0  |  0 KB/s  ]   Личеров:  0  |  0 KB/s  ]

* - сиды/пиры с внешних источников

   
 
Автор Сообщение

ARI71 Пол:Муж

25-Ноя-2016 16:00

Ловля леща на Дону


Год выпуска: 2012
Жанр: документальный, рыбалка
Страна: Россия Russian Travel Guide TV (RTG TV)
Режиссер: Игорь Чернышов
В ролях: Станислав Сальников
Сюжет фильма:
Почти сто лет назад английские рыбаки придумали приспособление для ловли рыбы, ставшее популярным во всем мире - фидер. Теперь эту снасть широко используют и русские любители рыбалки. Легендарное орудие с вековой историей проверяли в действии ведущий RTG TV Станислав Сальников и чемпион мира по ловле фидером, Алексей Фадеев. Волгоградская область была выбрана местом для «испытаний» неслучайно: через этот регион несут свои воды две реки, изобилующие рыбой — Волга и Дон. Осенью здесь особенно продуктивна рыбалка на леща.
Качество видео: SatRip

Продолжительность: 00:38:03
Формат: AVI
Видео: XviD, 704x400, 1337 kbps
Аудио: русский, MP3 2.0, 128 kbps

Код:

Общее
Полное имя : D:\Lovlja.leshha.na.Donu.2012.XviD.SATRip.Zanaves.avi
Формат : AVI
Формат/Информация : Audio Video Interleave
Размер файла : 401 Мбайт
Продолжительность : 38 м.
Общий поток : 1474 Кбит/сек
Программа кодирования : VirtualDubMod 1.5.10.2 (build 2540/release)
Библиотека кодирования : VirtualDubMod build 2540/release

Видео
Идентификатор : 0
Формат : MPEG-4 Visual
Профиль формата : Advanced Simple@L5
Параметр BVOP формата : 2
Параметр QPel формата : Нет
Параметр GMC формата : Без точки перехода
Параметр матрицы формата : Default (H.263)
Режим смешивания : Сжатый битовый поток
Идентификатор кодека : XVID
Идентификатор кодека/Подсказка : XviD
Продолжительность : 38 м.
Битрейт : 1337 Кбит/сек
Ширина : 704 пикселя
Высота : 400 пикселей
Соотношение сторон : 16:9
Частота кадров : 25,000 кадров/сек
Цветовое пространство : YUV
Субдискретизация насыщенности : 4:2:0
Битовая глубина : 8 бит
Тип развёртки : Прогрессивная
Метод сжатия : С потерями
Бит/(Пиксели*Кадры) : 0.190
Размер потока : 364 Мбайт (91%)
Библиотека кодирования : XviD 64

Аудио
Идентификатор : 1
Формат : MPEG Audio
Версия формата : Version 1
Профиль формата : Layer 3
Режим : Joint stereo
Расширение режима : MS Stereo
Идентификатор кодека : 55
Идентификатор кодека/Подсказка : MP3
Продолжительность : 38 м.
Вид битрейта : Постоянный
Битрейт : 128 Кбит/сек
Каналы : 2 канала
Частота : 48,0 КГц
Метод сжатия : С потерями
Размер потока : 34,8 Мбайт (9%)
Выравнивание : Соединение по промежуткам
Продолжительность промежутка : 40 мс. (1,00 видеокадр)
Время предзагрузки промежутка : 504 мс.
picpicpicpicpic
Для увеличения картинки щелкните мышкой по превью

Этот торрент недоступен для скачивания без регистрации, однако доступен по публичной magnet-ссылке (источники с публичных трекеров). Перед использованием ссылки прочтите, пожалуйста Пользовательское соглашение, а также как можно дольше оставайтесь на раздаче! Для того, чтобы скачать сам торрент-файл (который видит больше источников), а также для того, чтобы поблагодарить релизера, вам необходимо зарегистрироваться. Если регистрироваться лень - вы можете также попробовать скачать релиз по нашим партнерским ссылкам ниже.

[underverse.su].t74404.torrent
Трекер: Зарегистрирован   [ 25.11.2016 16:00 ]  

Статус: проверено (by ARI71 at 25.11.2016 16:03)
Поблагодарили: пока никто не поблагодарил...
Тип торрента: публичный - доступные источники с открытых трекеров: 
Размер: 401 MB (занимает 0,09 DVDR, для записи нужно 1 болванка DVDR/RW)
 
 

ARI71 Пол:Муж

25-Ноя-2016 16:01

Приятного всем просмотра!

Голосуй за трекер!!




Яндекс.Метрика powered by Sphinx


В Н И М А Н И Е
Сайт не распространяет и не хранит электронные версии произведений, а лишь бесплатно и без коммерческой выгоды (не требуя взамен платы,
SMS и т.д.) предоставляет доступ к создаваемому пользователями каталогу ссылок на торрент-файлы, которые содержат только списки хеш-сумм.
Убедительная просьба с жалобами обращаться напрямую к пользователю, разместившему торрент файл.

Вверх