Loading...
Error

Вадим Козин. Прощальный романс (Леонид Рыжков) [2002 г., документальный, биография, эстрада, история, культура, SatRip]

Статистика раздачи
Размер:  419 MB   |    Зарегистрирован:  14 дней   |    Скачан:  0 раз

Полного источника не было: Никогда

Сидов:  0  |  0 KB/s  ]   Личеров:  0  |  0 KB/s  ]

* - сиды/пиры с внешних источников

   
 
Автор Сообщение

ARI71 Пол:Муж

25-Ноя-2016 15:20

Вадим Козин. Прощальный романс


Год выпуска: 2002
Жанр: документальный, биография, эстрада, история, культура
Страна: Россия ООО "Наш взгляд"
Режиссер: Леонид Рыжков
Сюжет фильма:
О последнем певце «той эпохи» рассказывает актер Сергей Никоненко и верная подруга последних лет жизни Козина - Дина Акимовна Климова. Вадим Козин - блистательный певец и пианист, в творчестве которого отражены две замечательные исполнительские традиции: русская и цыганская. Имя легендарного исполнителя привлекает любителей песни и романсов на протяжении семидесяти с лишним лет, его популярность можно сравнить только со славой Леонида Утесова, Изабеллы Юрьевой и Ивана Козловского. В репертуаре Вадима Козина около трех тысяч романсов, из них более двухсот написал он сам.

Вади́м Алексе́евич Ко́зин (1903—1994) — советский эстрадный певец (лирический тенор), композитор, поэт, автор нескольких сотен песен.
Качество видео: SatRip

Продолжительность: 00:37:59
Формат: AVI
Видео: XviD, 704x560, 1399 kbps
Аудио: русский, MP3 2.0, 128 kbps

Автор рипа: kosta52

Код:

Общее
Полное имя : D:\Вадим Козин. Прощальный романс.2002.SATRip.kosta52.avi
Формат : AVI
Формат/Информация : Audio Video Interleave
Размер файла : 419 Мбайт
Продолжительность : 37 м.
Общий поток : 1540 Кбит/сек
Библиотека кодирования : TMPGEnc 4.0 XPress Version. 4.7.7.307

Видео
Идентификатор : 0
Формат : MPEG-4 Visual
Профиль формата : Simple@L1
Параметр BVOP формата : Нет
Параметр QPel формата : Нет
Параметр GMC формата : Без точки перехода
Параметр матрицы формата : Default (H.263)
Идентификатор кодека : XVID
Идентификатор кодека/Подсказка : XviD
Продолжительность : 37 м.
Битрейт : 1399 Кбит/сек
Ширина : 704 пикселя
Высота : 560 пикселей
Соотношение сторон : 5:4
Частота кадров : 25,000 кадров/сек
Цветовое пространство : YUV
Субдискретизация насыщенности : 4:2:0
Битовая глубина : 8 бит
Тип развёртки : Прогрессивная
Метод сжатия : С потерями
Бит/(Пиксели*Кадры) : 0.142
Размер потока : 380 Мбайт (91%)
Библиотека кодирования : Lavc52.92.0

Аудио
Идентификатор : 1
Формат : MPEG Audio
Версия формата : Version 1
Профиль формата : Layer 3
Режим : Joint stereo
Расширение режима : MS Stereo
Идентификатор кодека : 55
Идентификатор кодека/Подсказка : MP3
Продолжительность : 37 м.
Вид битрейта : Постоянный
Битрейт : 128 Кбит/сек
Каналы : 2 канала
Частота : 48,0 КГц
Метод сжатия : С потерями
Размер потока : 34,8 Мбайт (8%)
Выравнивание : Соединение по промежуткам
Продолжительность промежутка : 40 мс. (1,00 видеокадр)
Время предзагрузки промежутка : 384 мс.
picpicpicpicpic
Для увеличения картинки щелкните мышкой по превью

Этот торрент недоступен для скачивания без регистрации, однако доступен по публичной magnet-ссылке (источники с публичных трекеров). Перед использованием ссылки прочтите, пожалуйста Пользовательское соглашение, а также как можно дольше оставайтесь на раздаче! Для того, чтобы скачать сам торрент-файл (который видит больше источников), а также для того, чтобы поблагодарить релизера, вам необходимо зарегистрироваться. Если регистрироваться лень - вы можете также попробовать скачать релиз по нашим партнерским ссылкам ниже.

[underverse.su].t74398.torrent
Трекер: Зарегистрирован   [ 25.11.2016 15:20 ]  

Статус: проверено (by ARI71 at 25.11.2016 15:21)
Поблагодарили: пока никто не поблагодарил...
Тип торрента: публичный - доступные источники с открытых трекеров: 
Размер: 419 MB (занимает 0,09 DVDR, для записи нужно 1 болванка DVDR/RW)
 
 

Яндекс.Метрика powered by Sphinx


В Н И М А Н И Е
Сайт не распространяет и не хранит электронные версии произведений, а лишь бесплатно и без коммерческой выгоды (не требуя взамен платы,
SMS и т.д.) предоставляет доступ к создаваемому пользователями каталогу ссылок на торрент-файлы, которые содержат только списки хеш-сумм.
Убедительная просьба с жалобами обращаться напрямую к пользователю, разместившему торрент файл.

Вверх