Loading...
Error

Императорский фарфоровый завод (Сергей Дудкин) [2009 г., документальный, научно-познавательный, история, культура, TVRip]

Статистика раздачи
Размер:  219 MB   |    Зарегистрирован:  11 месяцев   |    Скачан:  3 раза

Полного источника не было: 2 месяца 26 дней

Сидов:  0  |  0 KB/s  ]   Личеров:  0  |  0 KB/s  ]

* - сиды/пиры с внешних источников

   
 
Автор Сообщение

ARI71 Пол:Муж

25-Ноя-2016 14:50

Императорский фарфоровый завод


Год выпуска: 2009
Жанр: документальный, научно-познавательный, история, культура
Страна: Россия Russian Travel Guide TV (RTG TV)
Режиссер: Сергей Дудкин
Ведущая: Диана Пылаева
Сюжет фильма:
Еще 300 лет назад в Европе и не представляли, из чего делается фарфор - китайцы тщательно оберегали тайну изготовления этого «белого золота». Изделия из него дарили коронованным особам, ими украшали парадные залы. А если они разбивались - кусочки битого фарфора оправляли в золото и носили на цепочках, как украшения. В 1746 году талантливый русский ученый Дмитрий Виноградов разгадал китайскую тайну. 12 лет продолжались эксперименты с глиной и обжигом. И вот перед зрителями все технологические этапы современного производства фарфора - от обработки полевого шпата до росписи изящного изделия.
Качество видео: TVRip

Продолжительность: 00:22:36
Формат: AVI
Видео: XviD, 704x528, 1215 kbps
Аудио: русский, MP3 2.0, 128 kbps

Код:

Общее
Полное имя : D:\Imperatorskii.farforovyi.zavod.2009.XviD.TVRip_qsdyg.avi
Формат : AVI
Формат/Информация : Audio Video Interleave
Размер файла : 219 Мбайт
Продолжительность : 22 м.
Общий поток : 1353 Кбит/сек
Программа кодирования : VirtualDubMod 1.5.10.2 (build 2540/release)
Библиотека кодирования : VirtualDubMod build 2540/release

Видео
Идентификатор : 0
Формат : MPEG-4 Visual
Профиль формата : Advanced Simple@L5
Параметр BVOP формата : 1
Параметр QPel формата : Нет
Параметр GMC формата : Без точки перехода
Параметр матрицы формата : Default (MPEG)
Идентификатор кодека : XVID
Идентификатор кодека/Подсказка : XviD
Продолжительность : 22 м.
Битрейт : 1215 Кбит/сек
Ширина : 704 пикселя
Высота : 528 пикселей
Соотношение сторон : 4:3
Частота кадров : 25,000 кадров/сек
Цветовое пространство : YUV
Субдискретизация насыщенности : 4:2:0
Битовая глубина : 8 бит
Тип развёртки : Прогрессивная
Метод сжатия : С потерями
Бит/(Пиксели*Кадры) : 0.131
Размер потока : 197 Мбайт (90%)
Библиотека кодирования : XviD 1.2.1 (UTC 2008-12-04)

Аудио
Идентификатор : 1
Формат : MPEG Audio
Версия формата : Version 1
Профиль формата : Layer 3
Идентификатор кодека : 55
Идентификатор кодека/Подсказка : MP3
Продолжительность : 22 м.
Вид битрейта : Постоянный
Битрейт : 128 Кбит/сек
Каналы : 2 канала
Частота : 48,0 КГц
Метод сжатия : С потерями
Размер потока : 20,7 Мбайт (9%)
Выравнивание : Соединение по промежуткам
Продолжительность промежутка : 40 мс. (1,00 видеокадр)
Время предзагрузки промежутка : 504 мс.
Библиотека кодирования : LAME3.98r
Настройки программы : -m s -V 4 -q 2 -lowpass 17 -b 128
picpicpicpicpic
Для увеличения картинки щелкните мышкой по превью

Этот торрент недоступен для скачивания без регистрации, однако доступен по публичной magnet-ссылке (источники с публичных трекеров). Перед использованием ссылки прочтите, пожалуйста Пользовательское соглашение, а также как можно дольше оставайтесь на раздаче! Для того, чтобы скачать сам торрент-файл (который видит больше источников), а также для того, чтобы поблагодарить релизера, вам необходимо зарегистрироваться. Если регистрироваться лень - вы можете также попробовать скачать релиз по нашим партнерским ссылкам ниже.

[underverse.su].t74397.torrent
Трекер: Зарегистрирован   [ 25.11.2016 14:50 ]  

Статус: проверено (by ARI71 at 25.11.2016 14:52)
Поблагодарили: пока никто не поблагодарил...
Тип торрента: публичный - доступные источники с открытых трекеров: 
Размер: 219 MB (занимает 0,05 DVDR, для записи нужно 1 болванка DVDR/RW)
 
 
Похожие темы
Форум Тема Автор Торрент Отв. Посл. сооб.
Документальное кино [HDDVDRip / BDRip / WEB-DL / HDTV 1080/720р] Императорский дворец в Киото. Красота, неподвластная времени / Kyoto Imperial Palace. Beauty Hidden for a Thousand Years (Юсукэ Ягисита) [2015 г., документальный, архитектура, история, HDTVRip 720p]... ARI71
1 | 0

0 | 440

2

17.09.2017 09:06

ARI71 Пол:Муж

25-Ноя-2016 14:52

Приятного всем просмотра!

Голосуй за трекер!!




Яндекс.Метрика powered by Sphinx


В Н И М А Н И Е
Сайт не распространяет и не хранит электронные версии произведений, а лишь бесплатно и без коммерческой выгоды (не требуя взамен платы,
SMS и т.д.) предоставляет доступ к создаваемому пользователями каталогу ссылок на торрент-файлы, которые содержат только списки хеш-сумм.
Убедительная просьба с жалобами обращаться напрямую к пользователю, разместившему торрент файл.

Вверх