Loading...
Error

Брачное поведение акул / Shark Sex [2005 г., документальный, морская фауна, TVRip] VO

Статистика раздачи
Размер:  526 MB   |    Зарегистрирован:  12 дней   |    Скачан:  0 раз

Полного источника не было: 11 дней

Сидов:  0  |  0 KB/s  ]   Личеров:  0  |  0 KB/s  ]

* - сиды/пиры с внешних источников

   
 
Автор Сообщение

ARI71 Пол:Муж

24-Ноя-2016 05:54

Брачное поведение акул / Shark Sex


Год выпуска: 2005
Жанр: документальный, морская фауна
Страна: США Animal Planet
Сюжет фильма:
Это история про четырех ученых. У них есть 30 дней на атолле Рэнджироа в Тихом океане, чтобы самим увидеть и впервые в мире заснять спаривание акул.
Живописный коралловый риф является родиной 12 разновидностей акул. Фильм демонстрирует удивительно красивые подводные съемки черепах, мурен, дельфинов и множества молодых акул. Становится ясно, что лагуна - экологическое чудо, достойное охраны.
Своей миссией ученые видят придание этому атоллу статуса заповедника для сохранения уникальной экосистемы от уничтожения.
Качество видео: TVRip

Продолжительность: 00:45:49
Формат: AVI
Видео: DivX 5, 640x368, 1500 kbps
Аудио: русский, одноголосый [профессиональный], MP3 (mono), 96 kbps

Код:

Общее
Полное имя : D:\Брачное поведение акул.avi
Формат : AVI
Формат/Информация : Audio Video Interleave
Размер файла : 526 Мбайт
Продолжительность : 45 м.
Общий поток : 1606 Кбит/сек
Программа кодирования : VirtualDubMod 1.5.10.2 (build 2542/release)
Библиотека кодирования : VirtualDubMod build 2542/release

Видео
Идентификатор : 0
Формат : MPEG-4 Visual
Параметр BVOP формата : 3
Параметр QPel формата : Нет
Параметр GMC формата : Без точки перехода
Параметр матрицы формата : Default (MPEG)
Режим смешивания : Сжатый битовый поток
Идентификатор кодека : DX50
Идентификатор кодека/Подсказка : DivX 5
Продолжительность : 45 м.
Битрейт : 1500 Кбит/сек
Ширина : 640 пикселей
Высота : 368 пикселей
Соотношение сторон : 1,211
Соотношение сторон в оригинале : 1,739
Частота кадров : 25,000 кадров/сек
Цветовое пространство : YUV
Субдискретизация насыщенности : 4:2:0
Битовая глубина : 8 бит
Тип развёртки : Прогрессивная
Метод сжатия : С потерями
Бит/(Пиксели*Кадры) : 0.255
Размер потока : 492 Мбайт (93%)
Библиотека кодирования : DivX 6.5.0 (UTC 2006-12)

Аудио
Идентификатор : 1
Формат : MPEG Audio
Версия формата : Version 1
Профиль формата : Layer 3
Идентификатор кодека : 55
Идентификатор кодека/Подсказка : MP3
Продолжительность : 45 м.
Вид битрейта : Постоянный
Битрейт : 96,0 Кбит/сек
Каналы : 1 канал
Частота : 48,0 КГц
Метод сжатия : С потерями
Размер потока : 31,5 Мбайт (6%)
Выравнивание : Разделение по промежуткам
Продолжительность промежутка : 40 мс. (1,00 видеокадр)
Время предзагрузки промежутка : 500 мс.
picpicpicpicpic
Для увеличения картинки щелкните мышкой по превью

Этот торрент недоступен для скачивания без регистрации, однако доступен по публичной magnet-ссылке (источники с публичных трекеров). Перед использованием ссылки прочтите, пожалуйста Пользовательское соглашение, а также как можно дольше оставайтесь на раздаче! Для того, чтобы скачать сам торрент-файл (который видит больше источников), а также для того, чтобы поблагодарить релизера, вам необходимо зарегистрироваться. Если регистрироваться лень - вы можете также попробовать скачать релиз по нашим партнерским ссылкам ниже.

[underverse.su].t74311.torrent
Трекер: Зарегистрирован   [ 24.11.2016 05:54 ]  

Статус: проверено (by ARI71 at 24.11.2016 05:56)
Поблагодарили: пока никто не поблагодарил...
Тип торрента: публичный - доступные источники с открытых трекеров: 
Размер: 526 MB (занимает 0,12 DVDR, для записи нужно 1 болванка DVDR/RW)
 
 

ARI71 Пол:Муж

24-Ноя-2016 05:58

Приятного всем просмотра!

Голосуй за трекер!!




Яндекс.Метрика powered by Sphinx


В Н И М А Н И Е
Сайт не распространяет и не хранит электронные версии произведений, а лишь бесплатно и без коммерческой выгоды (не требуя взамен платы,
SMS и т.д.) предоставляет доступ к создаваемому пользователями каталогу ссылок на торрент-файлы, которые содержат только списки хеш-сумм.
Убедительная просьба с жалобами обращаться напрямую к пользователю, разместившему торрент файл.

Вверх