Loading...
Error

Падшее божество: Монтесума / Fallen God: Montezuma (Марио Занот) [2004 г., документальный, исследование, познавательный, реконструкция, SatRip] DVO (Марафон)

Статистика раздачи
Размер:  526 MB   |    Зарегистрирован:  12 дней   |    Скачан:  1 раз

Полного источника не было: 9 дней

Сидов:  0  |  0 KB/s  ]   Личеров:  0  |  0 KB/s  ]

* - сиды/пиры с внешних источников

   
 
Автор Сообщение

ARI71 Пол:Муж

23-Ноя-2016 14:40

Падшее божество: Монтесума / Fallen God: Montezuma


Год выпуска: 2004
Жанр: документальный, исследование, познавательный, реконструкция
Страна: США Discovery Channel, телеканал «ТВ Центр»
Режиссер: Марио Занот
Сюжет фильма:
Фильм рассказывает о расцвете и падении могущественного государства ацтеков. Трагическая гибель империи до сих пор окутана тайной. Монтесума II стал императором ацтеков около 1502 года. Он считался богом и был абсолютным монархом всего известного ацтекам мира. Его империя занимала большую часть современной Мексики. Ацтеки покорили практически все окружающие их народы, за исключением нескольких, которым специально предоставили свободу, чтобы было с кем воевать и кого приносить в жертву. В 1519 году испанцы во главе с Кортесом высадились у берегов империи ацтеков. Монтесума наблюдал за приближением Кортеса со священным ужасом. Согласно религии ацтеков, бог Кетцалькоатль должен был однажды вернуться в виде светлокожего бородатого человека, а когда этот день настанет, ацтеки должны встречать его с распростертыми объятиями. Захваченный в плен Монтесума выступил с призывом покориться испанцам, за что был убит восставшими индейцами в 1520 году.

Монтесума I (на языке науатль — Моктесума, Мотекусома или Мотекухсома — «Гневающийся, как господин») Илуикамина («Тот, который пускает в небо стрелы») или Уэуэ («Старший») (около 1398—1469) — верховный правитель (уэй-тлатоани — «Великий Оратор») государства ацтеков в 1440—1469 годах. Значительно расширил подвластную ацтекам территорию, дойдя на востоке до побережья Мексиканского залива. Заложил основы сакрализации личности уэй-тлатоани ацтеков.
Качество видео: SatRip

Продолжительность: 00:46:51
Формат: AVI
Видео: XviD, 704x400, 1432 kbps
Аудио: русский, двухголосый [профессиональный, Марафон], MP3 2.0, 128 kbps

Рип от: Xaоc

Код:

Общее
Полное имя : D:\Падшее божество. Монтесума (DaVinci).avi
Формат : AVI
Формат/Информация : Audio Video Interleave
Размер файла : 526 Мбайт
Продолжительность : 46 м.
Общий поток : 1570 Кбит/сек
Библиотека кодирования : VirtualDub build 35491/release

Видео
Идентификатор : 0
Формат : MPEG-4 Visual
Профиль формата : Advanced Simple@L5
Параметр BVOP формата : 2
Параметр QPel формата : Нет
Параметр GMC формата : Без точки перехода
Параметр матрицы формата : Default (MPEG)
Режим смешивания : Сжатый битовый поток
Идентификатор кодека : XVID
Идентификатор кодека/Подсказка : XviD
Продолжительность : 46 м.
Битрейт : 1432 Кбит/сек
Ширина : 704 пикселя
Высота : 400 пикселей
Соотношение сторон : 16:9
Частота кадров : 25,000 кадров/сек
Цветовое пространство : YUV
Субдискретизация насыщенности : 4:2:0
Битовая глубина : 8 бит
Тип развёртки : Прогрессивная
Метод сжатия : С потерями
Бит/(Пиксели*Кадры) : 0.203
Размер потока : 480 Мбайт (91%)
Библиотека кодирования : XviD 73

Аудио
Идентификатор : 1
Формат : MPEG Audio
Версия формата : Version 1
Профиль формата : Layer 3
Режим : Joint stereo
Расширение режима : MS Stereo
Идентификатор кодека : 55
Идентификатор кодека/Подсказка : MP3
Продолжительность : 46 м.
Вид битрейта : Постоянный
Битрейт : 128 Кбит/сек
Каналы : 2 канала
Частота : 48,0 КГц
Метод сжатия : С потерями
Размер потока : 42,9 Мбайт (8%)
Выравнивание : Разделение по промежуткам
Продолжительность промежутка : 40 мс. (1,00 видеокадр)
Время предзагрузки промежутка : 500 мс.
picpicpicpicpic
Для увеличения картинки щелкните мышкой по превью

Этот торрент недоступен для скачивания без регистрации, однако доступен по публичной magnet-ссылке (источники с публичных трекеров). Перед использованием ссылки прочтите, пожалуйста Пользовательское соглашение, а также как можно дольше оставайтесь на раздаче! Для того, чтобы скачать сам торрент-файл (который видит больше источников), а также для того, чтобы поблагодарить релизера, вам необходимо зарегистрироваться. Если регистрироваться лень - вы можете также попробовать скачать релиз по нашим партнерским ссылкам ниже.

[underverse.su].t74259.torrent
Трекер: Зарегистрирован   [ 23.11.2016 14:40 ]  

Статус: проверено (by ARI71 at 23.11.2016 14:43)
Поблагодарили: пока никто не поблагодарил...
Тип торрента: публичный - доступные источники с открытых трекеров: 
Размер: 526 MB (занимает 0,12 DVDR, для записи нужно 1 болванка DVDR/RW)
 
 

ARI71 Пол:Муж

23-Ноя-2016 14:43

Приятного всем просмотра!

Голосуй за трекер!!




Яндекс.Метрика powered by Sphinx


В Н И М А Н И Е
Сайт не распространяет и не хранит электронные версии произведений, а лишь бесплатно и без коммерческой выгоды (не требуя взамен платы,
SMS и т.д.) предоставляет доступ к создаваемому пользователями каталогу ссылок на торрент-файлы, которые содержат только списки хеш-сумм.
Убедительная просьба с жалобами обращаться напрямую к пользователю, разместившему торрент файл.

Вверх