Loading...
Error

Опасные каникулы (Ольга Беляева ) [2016 г., приключения, семейный, WEB-DLRip] RUS (iTunes)

Статистика раздачи
Размер:  1,16 GB   |    Зарегистрирован:  10 дней   |    Скачан:  3 раза

Полного источника не было: 6 дней

Сидов:  0  |  0 KB/s  ]   Личеров:  0  |  0 KB/s  ]

* - сиды/пиры с внешних источников

   
 
Автор Сообщение

makkol Пол:Муж

23-Ноя-2016 13:35

Опасные каникулы


Год выпуска: 2016
Жанр: приключения, семейный
Производство: Россия [Киностудия "Вертикаль"]
Режиссер: Ольга Беляева
В ролях: Евдокия Колесникова, Эрих Чупин, Ремзи Оказов, Ирина Скобцева, Алина Крюкова, Константин Крюков, Галина Польских, Сергей Никоненко, Андрюс Паулавичюс
Сюжет фильма:
Сережа – типичный городской мальчишка. Так же, как и его сверстники, он проводит свои летние каникулы, играя в компьютерные игры. Однажды он вместе с родителями приезжает на все лето в Крым. Здесь его ждут завораживающая природа, новые друзья, головокружительные приключения с далеко не детскими испытаниями и опасностями!

  • Российская премьера: 27 октября 2016


Качество видео: WEB-DLRip

Продолжительность: 01:16:40
Формат: AVI
Видео: XviD, 720x304 (2.35:1), 25.000 fps, 1771 kbps
Аудио: русский, оригинал (iTunes), AC3 5.1, 48 kHz, 384 kbps

Код:

Формат                                   : AVI
Формат/Информация                        : Audio Video Interleave
Размер файла                             : 1,16 Гбайт
Продолжительность                        : 1 ч. 16 м.
Общий поток                              : 2164 Кбит/сек
Название фильма                          : 0paCHYe.kaH1kuLY.2016.O.WEB-DLRip.14OOMB
Программа кодирования                    : VirtualDubMod 1.5.10.3 (build 2550/release)
Библиотека кодирования                   : VirtualDubMod build 2550/release
Формат оригинала/Имя                     : Movie

Видео
Идентификатор                            : 0
Формат                                   : MPEG-4 Visual
Профиль формата                          : Advanced Simple@L5
Параметр BVOP формата                    : 2
Параметр QPel формата                    : Нет
Параметр GMC формата                     : Без точки перехода
Параметр матрицы формата                 : Default (MPEG)
Идентификатор кодека                     : XVID
Идентификатор кодека/Подсказка           : XviD
Продолжительность                        : 1 ч. 16 м.
Битрейт                                  : 1771 Кбит/сек
Ширина                                   : 720 пикселей
Высота                                   : 304 пикселя
Соотношение сторон                       : 2,35:1
Частота кадров                           : 25,000 кадров/сек
Цветовое пространство                    : YUV
Субдискретизация насыщенности            : 4:2:0
Битовая глубина                          : 8 бит
Тип развёртки                            : Прогрессивная
Метод сжатия                             : С потерями
Бит/(Пиксели*Кадры)                      : 0.324
Размер потока                            : 971 Мбайт (82%)
Библиотека кодирования                   : XviD 1.2.1 (UTC 2008-12-04)

Аудио
Идентификатор                            : 1
Формат                                   : AC-3
Формат/Информация                        : Audio Coding 3
Расширение режима                        : CM (complete main)
Параметр Endianness формата              : Big
Идентификатор кодека                     : 2000
Продолжительность                        : 1 ч. 16 м.
Вид битрейта                             : Постоянный
Битрейт                                  : 384 Кбит/сек
Каналы                                   : 6 каналов
Расположение каналов                     : Front: L C R, Side: L R, LFE
Частота                                  : 48,0 КГц
Битовая глубина                          : 16 бит
Метод сжатия                             : С потерями
Размер потока                            : 211 Мбайт (18%)
Выравнивание                             : Разделение по промежуткам
Продолжительность промежутка             : 40  мс. (1,00 видеокадр)
Время предзагрузки промежутка            : 500  мс.


picpicpicpicpic
Для увеличения картинки щелкните мышкой по превью

Этот торрент недоступен для скачивания без регистрации, однако доступен по публичной magnet-ссылке (источники с публичных трекеров). Перед использованием ссылки прочтите, пожалуйста Пользовательское соглашение, а также как можно дольше оставайтесь на раздаче! Для того, чтобы скачать сам торрент-файл (который видит больше источников), а также для того, чтобы поблагодарить релизера, вам необходимо зарегистрироваться. Если регистрироваться лень - вы можете также попробовать скачать релиз по нашим партнерским ссылкам ниже.

[underverse.su].t74252.torrent
Трекер: Зарегистрирован   [ 23.11.2016 13:35 ]  

Статус: T временная (by Паукан at 23.11.2016 14:50)
Поблагодарили: пока никто не поблагодарил...
Тип торрента: публичный - доступные источники с открытых трекеров: 
Размер: 1,16 GB (занимает 0,26 DVDR, для записи нужно 1 болванка DVDR/RW)
 
 
Похожие темы
Форум Тема Автор Торрент Отв. Посл. сооб.
T Наше кино [DVDRip, Low-Res HDRip, и т.д.] Опасные каникулы (Ольга Беляева) [2016 г., приключения, семейный, комедия, WEB-DLRip] 90ytr90
139 | 8

0 | 207

7

23.11.2016 16:08

T Наше кино [DVDRip, Low-Res HDRip, и т.д.] Опасные каникулы (Ольга Беляева) [2016 г., приключения, семейный, комедия, WEB-DLRip-AVC] 90ytr90
67 | 3

0 | 297

4

23.11.2016 16:04

T Наше кино [HDDVDRip / BDRip / WEB-DL / HDTV 1080/720р] Опасные каникулы (Ольга Беляева ) [2016 г., приключения, семейный, WEB-DL 1080p] RUS (iTunes) makkol
336 | 20

0 | 228

6

23.11.2016 13:57

T Наше кино [HDDVDRip / BDRip / WEB-DL / HDTV 1080/720р] Опасные каникулы (Ольга Беляева ) [2016 г., приключения, семейный, WEB-DL 720p] RUS (iTunes) makkol
74 | 3

0 | 184

3

23.11.2016 13:50


Яндекс.Метрика powered by Sphinx


В Н И М А Н И Е
Сайт не распространяет и не хранит электронные версии произведений, а лишь бесплатно и без коммерческой выгоды (не требуя взамен платы,
SMS и т.д.) предоставляет доступ к создаваемому пользователями каталогу ссылок на торрент-файлы, которые содержат только списки хеш-сумм.
Убедительная просьба с жалобами обращаться напрямую к пользователю, разместившему торрент файл.

Вверх