Loading...
Error

Неоконченная песня. Юрий Гуляев (Ириада Максимова) [2009 г., документальный, биография, опера, эстрада, SatRip]

Статистика раздачи
Размер:  553 MB   |    Зарегистрирован:  15 дней   |    Скачан:  0 раз

Полного источника не было: Никогда

Сидов:  0  |  0 KB/s  ]   Личеров:  0  |  0 KB/s  ]

* - сиды/пиры с внешних источников

   
 
Автор Сообщение

ARI71 Пол:Муж

23-Ноя-2016 11:42

Неоконченная песня. Юрий Гуляев


Год выпуска: 2009
Жанр: документальный, биография, опера, эстрада
Страна: Россия ВГТРК
Режиссер: Ириада Максимова
Сюжет фильма:
Юрий Гуляев в 70-80-е годы был кумиром миллионов советских людей. Его концерты собирали многотысячные площадки, которые ломились от зрителей. Мечта мальчишки из далекой Тюмени сбылась - он стал певцом!.. Но он и не догадывался, какие тяжкие испытания ждут его на пути к успеху. Все началось в Уральской консерватории в Свердловске, где из-за непростительной ошибки педагогов его учили, как тенора, а он был баритоном. Четыре года учебы он был на грани отчисления. Когда запел баритоном – все встало на свои места. Его лучезарную улыбку почитатели помнят и сегодня. А какие жизненные трагедии скрывались за ней – знали только близкие. Тяжелая болезнь – астма, несовместимая с профессией певца, мучила его почти десять лет. Гуляев пережил еще одну трагедию. Сын родился инвалидом. Диагноз – детский церебральный паралич. Все душевные и физические силы родителей были направлены на исцеление Юры-младшего, который сегодня благодаря их усилиям живет и успешно работает, храня память о своем великом отце. Успехи Гуляева на лучших оперных сценах страны (Киевский театр им. Шевченко, Большой театр), камерное творчество, эстрада и телевидение сделали его невероятно популярным. Но трагические события жизни и болезнь неуклонно подтачивали его здоровье. Он неоднократно попадал в реанимацию, но его спасали. 23 апреля 1986 года сердце знаменитого певца перестало биться. Ему было 56 лет.

Ю́рий Алекса́ндрович Гуля́ев (1930 — 1986) — советский оперный и эстрадный певец (баритон), композитор. Народный артист СССР (1968)
Качество видео: SatRip

Продолжительность: 00:44:37
Формат: AVI
Видео: DivX 5, 704x416, 1593 kbps
Аудио: русский, MP3 2.0, 128 kbps
Субтитры: тип: вшитые, неотключаемые, русский

Релиз от: kosta52

Код:

Общее
Полное имя : D:\Неоконченная песня. Юрий Гуляев.2009.SATRip.kosta52.avi
Формат : AVI
Формат/Информация : Audio Video Interleave
Размер файла : 553 Мбайт
Продолжительность : 44 м.
Общий поток : 1731 Кбит/сек
Библиотека кодирования : VirtualDub build 15654/release

Видео
Идентификатор : 0
Формат : MPEG-4 Visual
Параметр BVOP формата : 1
Параметр QPel формата : Нет
Параметр GMC формата : Без точки перехода
Параметр матрицы формата : Default (H.263)
Режим смешивания : Сжатый битовый поток
Идентификатор кодека : DX50
Идентификатор кодека/Подсказка : DivX 5
Продолжительность : 44 м.
Битрейт : 1593 Кбит/сек
Ширина : 704 пикселя
Высота : 416 пикселей
Соотношение сторон : 5:3
Частота кадров : 25,000 кадров/сек
Цветовое пространство : YUV
Субдискретизация насыщенности : 4:2:0
Битовая глубина : 8 бит
Тип развёртки : Прогрессивная
Метод сжатия : С потерями
Бит/(Пиксели*Кадры) : 0.218
Размер потока : 509 Мбайт (92%)
Библиотека кодирования : DivX 5.2.1 Alpha (UTC 2004-09-08)

Аудио
Идентификатор : 1
Формат : MPEG Audio
Версия формата : Version 1
Профиль формата : Layer 3
Идентификатор кодека : 55
Идентификатор кодека/Подсказка : MP3
Продолжительность : 44 м.
Вид битрейта : Постоянный
Битрейт : 128 Кбит/сек
Каналы : 2 канала
Частота : 44,1 КГц
Метод сжатия : С потерями
Задержка видео : 12 мс.
Размер потока : 40,9 Мбайт (7%)
Выравнивание : Разделение по промежуткам
Продолжительность промежутка : 40 мс. (1,00 видеокадр)
Время предзагрузки промежутка : 500 мс.
picpicpicpicpic
Для увеличения картинки щелкните мышкой по превью

Этот торрент недоступен для скачивания без регистрации, однако доступен по публичной magnet-ссылке (источники с публичных трекеров). Перед использованием ссылки прочтите, пожалуйста Пользовательское соглашение, а также как можно дольше оставайтесь на раздаче! Для того, чтобы скачать сам торрент-файл (который видит больше источников), а также для того, чтобы поблагодарить релизера, вам необходимо зарегистрироваться. Если регистрироваться лень - вы можете также попробовать скачать релиз по нашим партнерским ссылкам ниже.

[underverse.su].t74250.torrent
Трекер: Зарегистрирован   [ 23.11.2016 11:42 ]  

Статус: проверено (by ARI71 at 23.11.2016 11:45)
Поблагодарили: пока никто не поблагодарил...
Тип торрента: публичный - доступные источники с открытых трекеров: 
Размер: 553 MB (занимает 0,12 DVDR, для записи нужно 1 болванка DVDR/RW)
 
 
Похожие темы
Форум Тема Автор Торрент Отв. Посл. сооб.
Зарубежное кино [DVDRip, Low-Res HDRip, и т.д.] Неоконченный роман / Impardonnables (Андре Тешине) [2011 г., драма, DVDRip] [лицензия] 90ytr90
0 | 0

0 | 337

5

17.04.2012 18:34


Яндекс.Метрика powered by Sphinx


В Н И М А Н И Е
Сайт не распространяет и не хранит электронные версии произведений, а лишь бесплатно и без коммерческой выгоды (не требуя взамен платы,
SMS и т.д.) предоставляет доступ к создаваемому пользователями каталогу ссылок на торрент-файлы, которые содержат только списки хеш-сумм.
Убедительная просьба с жалобами обращаться напрямую к пользователю, разместившему торрент файл.

Вверх