Loading...
Error

Прощание (Нонна Мордюкова) [2016 г., документальный, биография, IPTVRip]

Статистика раздачи
Размер:  507 MB   |    Зарегистрирован:  17 дней   |    Скачан:  1 раз

Полного источника не было: 17 дней

Сидов:  0  |  0 KB/s  ]   Личеров:  0  |  0 KB/s  ]

* - сиды/пиры с внешних источников

   
 
Автор Сообщение

ARI71 Пол:Муж

22-Ноя-2016 21:34

Прощание (Нонна Мордюкова)


Год выпуска: 2016
Жанр: документальный, биография
Страна: Россия ТВЦ
Сюжет фильма:
Нонна Мордюкова просила, чтобы на её похоронах не было речей, и её действительно хоронили в молчании. Отпели в церквушке на Кунцевском кладбище и похоронили рядом с любимым сыном, чей ранний уход из жизни был главной трагедией в судьбе великой актрисы. Незадолго до смерти она звонила из больницы своему бывшему мужу Вячеславу Тихонову, и он попросил у неё прощения...

Но́нна Ви́кторовна Мордюко́ва (25 ноября 1925, Константиновка, Артёмовский округ, УССР, СССР — 6 июля 2008, Москва, Россия) — советская и российская актриса театра и кино. Лауреат Сталинской премии первой степени (1949). Лауреат Государственной премии РСФСР имени братьев Васильевых (1973). Народная артистка СССР (1974)
Качество видео: IPTVRip

Продолжительность: 00:40:49
Формат: AVI
Видео: XviD, 704x400, 1600 kbps
Аудио: русский, MP3 2.0, 128 kbps

Код:

Общее
Полное имя : D:\Прощание.Нонна Мордюкова.2016.IPTVRip.avi
Формат : AVI
Формат/Информация : Audio Video Interleave
Размер файла : 507 Мбайт
Продолжительность : 40 м.
Общий поток : 1737 Кбит/сек
Программа кодирования : VirtualDubMod 1.5.10.3 | www.virtualdub-fr.org || (build 2550/release)
Библиотека кодирования : VirtualDubMod build 2550/release

Видео
Идентификатор : 0
Формат : MPEG-4 Visual
Профиль формата : Advanced Simple@L5
Параметр BVOP формата : 2
Параметр QPel формата : Нет
Параметр GMC формата : Без точки перехода
Параметр матрицы формата : Default (H.263)
Идентификатор кодека : XVID
Идентификатор кодека/Подсказка : XviD
Продолжительность : 40 м.
Битрейт : 1600 Кбит/сек
Ширина : 704 пикселя
Высота : 400 пикселей
Соотношение сторон : 16:9
Частота кадров : 25,000 кадров/сек
Цветовое пространство : YUV
Субдискретизация насыщенности : 4:2:0
Битовая глубина : 8 бит
Тип развёртки : Прогрессивная
Метод сжатия : С потерями
Бит/(Пиксели*Кадры) : 0.227
Размер потока : 467 Мбайт (92%)
Библиотека кодирования : XviD 73

Аудио
Идентификатор : 1
Формат : MPEG Audio
Версия формата : Version 1
Профиль формата : Layer 3
Идентификатор кодека : 55
Идентификатор кодека/Подсказка : MP3
Продолжительность : 40 м.
Вид битрейта : Постоянный
Битрейт : 128 Кбит/сек
Каналы : 2 канала
Частота : 48,0 КГц
Метод сжатия : С потерями
Размер потока : 37,4 Мбайт (7%)
Выравнивание : Соединение по промежуткам
Продолжительность промежутка : 40 мс. (1,00 видеокадр)
Время предзагрузки промежутка : 504 мс.
Библиотека кодирования : LAME3.99r
Настройки программы : -m s -V 4 -q 2 -lowpass 17 -b 128
picpicpicpicpic
Для увеличения картинки щелкните мышкой по превью

Этот торрент недоступен для скачивания без регистрации, однако доступен по публичной magnet-ссылке (источники с публичных трекеров). Перед использованием ссылки прочтите, пожалуйста Пользовательское соглашение, а также как можно дольше оставайтесь на раздаче! Для того, чтобы скачать сам торрент-файл (который видит больше источников), а также для того, чтобы поблагодарить релизера, вам необходимо зарегистрироваться. Если регистрироваться лень - вы можете также попробовать скачать релиз по нашим партнерским ссылкам ниже.

[underverse.su].t74238.torrent
Трекер: Зарегистрирован   [ 22.11.2016 21:34 ]  

Статус: проверено (by ARI71 at 22.11.2016 21:37)
Поблагодарили: пока никто не поблагодарил...
Тип торрента: публичный - доступные источники с открытых трекеров: 
Размер: 507 MB (занимает 0,11 DVDR, для записи нужно 1 болванка DVDR/RW)
 
 
Похожие темы
Форум Тема Автор Торрент Отв. Посл. сооб.
Личности Прощание (Юрий Щекочихин) [2016 г., документальный, биография, политика, IPTVRip] ARI71
2 | 3

0 | 122

2

15.11.2016 15:33

Личности Прощание (Любовь Полищук) [2016 г., документальный, биография, история, IPTVRip] ARI71
3 | 0

0 | 130

0

08.11.2016 16:17

Личности Прощание (Игорь Тальков) [2016 г., документальный, биография, история, IPTVRip] ARI71
3 | 0

0 | 199

1

01.11.2016 17:12

Личности Прощание (Владислав Листьев) [2016 г., документальный, биография, история, SatRip] ARI71
0 | 0

1 | 506

6

02.03.2016 12:45

Личности Прощание (Никита Хрущёв) [2016 г., документальный, биография, история, SatRip] ARI71
2 | 0

1 | 552

12

14.04.2016 12:56

T Личности Прощание (1-14 серии из ??) [2015-2016 г., документальный, биография, SatRip] ARI71
0 | 0

0 | 553

1

24.04.2016 16:42


Яндекс.Метрика powered by Sphinx


В Н И М А Н И Е
Сайт не распространяет и не хранит электронные версии произведений, а лишь бесплатно и без коммерческой выгоды (не требуя взамен платы,
SMS и т.д.) предоставляет доступ к создаваемому пользователями каталогу ссылок на торрент-файлы, которые содержат только списки хеш-сумм.
Убедительная просьба с жалобами обращаться напрямую к пользователю, разместившему торрент файл.

Вверх