Loading...
Error

Королевы гадюк / Viper Queens [2016 г., документальный, фауна, SATRip-AVC] Dub

Статистика раздачи
Размер:  579 MB   |    Зарегистрирован:  11 дней   |    Скачан:  1 раз

Полного источника не было: 6 дней

Сидов:  0  |  0 KB/s  ]   Личеров:  0  |  0 KB/s  ]

* - сиды/пиры с внешних источников

   
 
Автор Сообщение

ARI71 Пол:Муж

21-Ноя-2016 21:41

Королевы гадюк / Viper Queens


Год выпуска: 2016
Жанр: документальный, фауна
Страна: США National Geographic
Сюжет фильма:
От пустынь Юго-Запада США до джунглей и деревень Африки, гадюки печально известны своим скверным нравом, треугольными головами, и самыми длинными клыками среди своих сородичей на Земле. Но эти супер змеи не просто семейство хладнокровных убийц. Самки проявляют мягкость, когда речь заходит о семье. Телма , Велвет и Нала - гадюки трёх видов, но их объединяет одно - материнский инстинкт. Но неужели только он помогает им побеждать в борьбе за выживание...
Качество видео: SATRip-AVC

Продолжительность: 00:45:09
Формат: MKV
Видео: MPEG-4 AVC, 720x400, 1631 kbps
Аудио: русский, дублированный, MP2 2.0, 128 kbps

Код:

Общее
Уникальный идентификатор : 161863348480229209517727398905474643144 (0x79C5BF39AAE02DBE5ED231C82D66F4C8)
Полное имя : D:\Viper.Queens.2015. SATRip (AVC).KinoHitHD.mkv
Формат : Matroska
Версия формата : Version 2
Размер файла : 579 Мбайт
Продолжительность : 45 м.
Общий поток : 1794 Кбит/сек
Программа кодирования : Lavf54.63.104
Библиотека кодирования : Lavf54.63.104 / Lavf54.63.104

Видео
Идентификатор : 1
Формат : AVC
Формат/Информация : Advanced Video Codec
Профиль формата : High@L4.1
Параметр CABAC формата : Да
Параметр ReFrames формата : 16 кадров
Идентификатор кодека : V_MPEG4/ISO/AVC
Продолжительность : 45 м.
Битрейт : 1631 Кбит/сек
Ширина : 720 пикселей
Высота : 400 пикселей
Соотношение сторон : 16:9
Режим частоты кадров : Постоянный
Частота кадров : 25,000 кадров/сек
Цветовое пространство : YUV
Субдискретизация насыщенности : 4:2:0
Битовая глубина : 8 бит
Тип развёртки : Прогрессивная
Бит/(Пиксели*Кадры) : 0.226
Размер потока : 527 Мбайт (91%)
Default : Нет
Forced : Нет

Аудио
Идентификатор : 2
Формат : MPEG Audio
Версия формата : Version 1
Профиль формата : Layer 2
Идентификатор кодека : A_MPEG/L2
Идентификатор кодека/Подсказка : MP2
Продолжительность : 45 м.
Вид битрейта : Постоянный
Битрейт : 128 Кбит/сек
Каналы : 2 канала
Частота : 48,0 КГц
Метод сжатия : С потерями
Размер потока : 41,3 Мбайт (7%)
Default : Да
Forced : Нет
picpicpicpicpic
Для увеличения картинки щелкните мышкой по превью

Этот торрент недоступен для скачивания без регистрации, однако доступен по публичной magnet-ссылке (источники с публичных трекеров). Перед использованием ссылки прочтите, пожалуйста Пользовательское соглашение, а также как можно дольше оставайтесь на раздаче! Для того, чтобы скачать сам торрент-файл (который видит больше источников), а также для того, чтобы поблагодарить релизера, вам необходимо зарегистрироваться. Если регистрироваться лень - вы можете также попробовать скачать релиз по нашим партнерским ссылкам ниже.

[underverse.su].t74193.torrent
Трекер: Зарегистрирован   [ 21.11.2016 21:41 ]  

Статус: проверено (by ARI71 at 21.11.2016 21:43)
Поблагодарили: пока никто не поблагодарил...
Тип торрента: публичный - доступные источники с открытых трекеров: 
Размер: 579 MB (занимает 0,13 DVDR, для записи нужно 1 болванка DVDR/RW)
 
 

Яндекс.Метрика powered by Sphinx


В Н И М А Н И Е
Сайт не распространяет и не хранит электронные версии произведений, а лишь бесплатно и без коммерческой выгоды (не требуя взамен платы,
SMS и т.д.) предоставляет доступ к создаваемому пользователями каталогу ссылок на торрент-файлы, которые содержат только списки хеш-сумм.
Убедительная просьба с жалобами обращаться напрямую к пользователю, разместившему торрент файл.

Вверх