Loading...
Error

Звезды эфира: Маврикиевна и Никитична (Георгий Ананов) [2004 г., документальный, биография, искусство, SatRip]

Статистика раздачи
Размер:  367 MB   |    Зарегистрирован:  17 дней   |    Скачан:  1 раз

Полного источника не было: 16 дней

Сидов:  0  |  0 KB/s  ]   Личеров:  0  |  0 KB/s  ]

* - сиды/пиры с внешних источников

   
 
Автор Сообщение

ARI71 Пол:Муж

21-Ноя-2016 18:22

Звезды эфира: Маврикиевна и Никитична


Год выпуска: 2004
Жанр: документальный, биография, искусство
Страна: Россия ОАО "1 канал"
Режиссер: Георгий Ананов
Сюжет фильма:
Программа из цикла «Звезды эфира», посвященна двум невероятным телевизионно-эстрадным старухам — утонченной Веронике Маврикиевне и неугомонной Авдотье Никитичне.
Идея появления этих персонажей на эстраде принадлежит согласно одним источникам Александру Ширвиндту, а согласно другим его придумали сами актёры — Вадим Тонков и Борис Владимиров. Так или иначе, эстрадный дуэт Авдотьи Никитичны и Вероники Маврикиевны в 70-х годах стал постоянным участником «Голубого огонька» и юмористических телепередач, что само по себе уже не мало. Об успехе этих актеров говорит и тот факт, что сама Галина Брежнева лично приглашала Владимирова и Тонкова выступить перед жёнами членов правительства на неформальном концерте.

Верони́ка Маври́киевна и Авдо́тья Ники́тична — комический эстрадный дуэт актёров Вадима Тонкова и Бориса Владимирова, существовавший в СССР с 1971 по 1985 годы.

Вадим Сергеевич Тонков (1932—2001) — советский и российский актёр театра и кино, эстрадный актёр
Борис Павлович Владимиров (1932—1988) — советский актёр театра и кино, эстрадный актёр
Качество видео: SatRip

Продолжительность: 00:25:43
Формат: AVI
Видео: DivX 5, 704x528, 1794 kbps
Аудио: русский, MP3 2.0, 192 kbps

Код:

Общее
Полное имя : D:\Zvezdy.efira.Veronika.Avdotja.SATRip.avi
Формат : AVI
Формат/Информация : Audio Video Interleave
Размер файла : 367 Мбайт
Продолжительность : 25 м.
Общий поток : 1996 Кбит/сек
Программа кодирования : VirtualDubMod 1.5.10.2 (build 2540/release)
Библиотека кодирования : VirtualDubMod build 2540/release

Видео
Идентификатор : 0
Формат : MPEG-4 Visual
Параметр BVOP формата : Нет
Параметр QPel формата : Нет
Параметр GMC формата : Без точки перехода
Параметр матрицы формата : Default (H.263)
Идентификатор кодека : DX50
Идентификатор кодека/Подсказка : DivX 5
Продолжительность : 25 м.
Битрейт : 1794 Кбит/сек
Ширина : 704 пикселя
Высота : 528 пикселей
Соотношение сторон : 4:3
Частота кадров : 25,000 кадров/сек
Цветовое пространство : YUV
Субдискретизация насыщенности : 4:2:0
Битовая глубина : 8 бит
Тип развёртки : Прогрессивная
Метод сжатия : С потерями
Бит/(Пиксели*Кадры) : 0.193
Размер потока : 330 Мбайт (90%)
Библиотека кодирования : DivX 5.0.5 (UTC 2003-04-24)

Аудио
Идентификатор : 1
Формат : MPEG Audio
Версия формата : Version 1
Профиль формата : Layer 3
Режим : Joint stereo
Идентификатор кодека : 55
Идентификатор кодека/Подсказка : MP3
Продолжительность : 25 м.
Вид битрейта : Постоянный
Битрейт : 192 Кбит/сек
Каналы : 2 канала
Частота : 48,0 КГц
Метод сжатия : С потерями
Задержка видео : 20 мс.
Размер потока : 35,3 Мбайт (10%)
Выравнивание : Разделение по промежуткам
Продолжительность промежутка : 40 мс. (1,00 видеокадр)
Время предзагрузки промежутка : 500 мс.
picpicpicpicpic
Для увеличения картинки щелкните мышкой по превью

Этот торрент недоступен для скачивания без регистрации, однако доступен по публичной magnet-ссылке (источники с публичных трекеров). Перед использованием ссылки прочтите, пожалуйста Пользовательское соглашение, а также как можно дольше оставайтесь на раздаче! Для того, чтобы скачать сам торрент-файл (который видит больше источников), а также для того, чтобы поблагодарить релизера, вам необходимо зарегистрироваться. Если регистрироваться лень - вы можете также попробовать скачать релиз по нашим партнерским ссылкам ниже.

[underverse.su].t74186.torrent
Трекер: Зарегистрирован   [ 21.11.2016 18:22 ]  

Статус: проверено (by ARI71 at 21.11.2016 18:25)
Поблагодарили: пока никто не поблагодарил...
Тип торрента: публичный - доступные источники с открытых трекеров: 
Размер: 367 MB (занимает 0,08 DVDR, для записи нужно 1 болванка DVDR/RW)
 
 
Похожие темы
Форум Тема Автор Торрент Отв. Посл. сооб.
Личности Звезды эфира. Николай Озеров (Олег Иваненко) [2004 г., документальный, биография, SatRip] ARI71
0 | 0

0 | 280

3

27.08.2016 12:12

Личности Звезды эфира. Юрий Сенкевич (Олег Иваненко) [2004 г., документальный, биография, SatRip] ARI71
1 | 0

0 | 261

1

27.08.2016 12:29

Личности Звезды эфира. Николай Дроздов (Олег Иваненко) [2005 г., документальный, биография, SatRip] ARI71
0 | 0

0 | 398

0

28.08.2016 08:49

Личности Звезды эфира. Зиновий Гердт (Олег Иваненко) [2005 г., документальный, биография, SatRip] ARI71
1 | 0

0 | 270

1

28.08.2016 09:02

Личности Звезды эфира. Сергей Супонев (Олег Иваненко) [2005 г., документальный, биография, SatRip] ARI71
0 | 1

0 | 185

0

29.08.2016 18:00

Личности Звезды эфира. Александр Бовин (Олег Иваненко) [2004 г., документальный, биография, TVRip] ARI71
0 | 0

0 | 169

0

29.08.2016 18:12

Личности Звезды эфира. Александр Иванов (Олег Иваненко) [2004 г., документальный, биография, VHSRip] ARI71
5 | 0

0 | 408

0

31.08.2016 19:38

ARI71 Пол:Муж

21-Ноя-2016 18:26

Приятного всем просмотра!

Голосуй за трекер!!




Яндекс.Метрика powered by Sphinx


В Н И М А Н И Е
Сайт не распространяет и не хранит электронные версии произведений, а лишь бесплатно и без коммерческой выгоды (не требуя взамен платы,
SMS и т.д.) предоставляет доступ к создаваемому пользователями каталогу ссылок на торрент-файлы, которые содержат только списки хеш-сумм.
Убедительная просьба с жалобами обращаться напрямую к пользователю, разместившему торрент файл.

Вверх