Loading...
Error

(Pop, Jazz, Soul) Jamala - All Or Nothing (2013) [FLAC (Image+.CUE), Lossless]

Статистика раздачи
Размер:  322 MB   |    Зарегистрирован:  1 год 7 месяцев   |    Скачан:  3 раза

Полного источника не было: 2 дня 13 часов

Сидов:  0  |  0 KB/s  ]   Личеров:  0  |  0 KB/s  ]

* - сиды/пиры с внешних источников

   
 
Автор Сообщение

Бишеп Пол:Муж

21-Ноя-2016 16:48

Jamala - All Or Nothing

Жанр: Pop, Jazz, Soul
Год выпуска: 2013
Источник: CD
Производитель диска: Moon Records - MR 5560-2
Аудиокодек: FLAC
Тип рипа: Image+.CUE
Битрейт аудио: lossless
Продолжительность: 00:46:37


Треклист:
01. All Or Nothing
02. How To Explain
03. Кактус
04. What's Worse
05. All These Simple Things
06. Your Love
07. У осени твои глаза
08. Я люблю тебя
09. Why Is That?
10. I'm Like A Bird
11. Hurt
12. Unutmasan

Код:

Exact Audio Copy V0.99 prebeta 5 from 4. May 2009

Отчёт EAC об извлечении, выполненном 22. мая 2013, 10:06

Jamala / All Or Nothing

Дисковод: TEAC    CD-W54E   Adapter: 1  ID: 0

Режим чтения                 : Достоверность
Использование точного потока : Да
Отключение кэша аудио        : Да
Использование указателей C2  : Нет

Коррекция смещения при чтении                     : 685
Способность читать области Lead-in и Lead-out     : Нет
Заполнение пропущенных сэмплов тишиной            : Да
Удаление блоков с тишиной в начале и конце        : Нет
При вычислениях CRC использовались нулевые сэмплы : Да
Интерфейс                                         : Встроенный Win32-интерфейс для Win NT/2000

Выходной формат : Внутренние WAV-операции
Формат сэмплов  : 44.100 Гц; 16 бит; стерео

TOC извлечённого CD

     Трек |   Старт  | Длительность | Начальный сектор | Конечный сектор
    ---------------------------------------------------------------------
       1  |  0:00.00 |    3:52.27   |           0      |      17426     
       2  |  3:52.27 |    4:06.41   |       17427      |      35917     
       3  |  7:58.68 |    3:57.25   |       35918      |      53717     
       4  | 11:56.18 |    3:38.05   |       53718      |      70072     
       5  | 15:34.23 |    3:35.41   |       70073      |      86238     
       6  | 19:09.64 |    4:17.25   |       86239      |     105538     
       7  | 23:27.14 |    3:23.63   |      105539      |     120826     
       8  | 26:51.02 |    2:45.43   |      120827      |     133244     
       9  | 29:36.45 |    4:12.28   |      133245      |     152172     
      10  | 33:48.73 |    3:33.64   |      152173      |     168211     
      11  | 37:22.62 |    4:03.27   |      168212      |     186463     
      12  | 41:26.14 |    5:11.26   |      186464      |     209814     

Характеристики диапазона извлечения и сообщения об ошибках

Выбранный диапазон

     Имя файла D:\bqw\release\Jamala - All Or Nothing - 2013\Jamala - All Or Nothing.wav

     Пиковый уровень 100.0 %
     Качество диапазона 100.0 %
     CRC теста D5A46076
     CRC копии D5A46076
     Копирование... OK

Ошибок не произошло

Конец отчёта

Код:

REM DATE 2013
REM DISCID 980AED0C
REM COMMENT "ExactAudioCopy v0.99pb5"
PERFORMER "Jamala"
TITLE "All Or Nothing"
FILE "Jamala - All Or Nothing.flac" WAVE
  TRACK 01 AUDIO
    TITLE "All Or Nothing"
    PERFORMER "Jamala"
    INDEX 01 00:00:00
  TRACK 02 AUDIO
    TITLE "How To Explain"
    PERFORMER "Jamala"
    INDEX 00 03:52:26
    INDEX 01 03:52:27
  TRACK 03 AUDIO
    TITLE "Кактус"
    PERFORMER "Jamala"
    INDEX 01 07:58:68
  TRACK 04 AUDIO
    TITLE "What's Worse"
    PERFORMER "Jamala"
    INDEX 01 11:56:18
  TRACK 05 AUDIO
    TITLE "All These Simple Things"
    PERFORMER "Jamala"
    INDEX 01 15:34:23
  TRACK 06 AUDIO
    TITLE "Your Love"
    PERFORMER "Jamala"
    INDEX 01 19:09:64
  TRACK 07 AUDIO
    TITLE "У осени твои глаза"
    PERFORMER "Jamala"
    INDEX 01 23:27:14
  TRACK 08 AUDIO
    TITLE "Я люблю тебя"
    PERFORMER "Jamala"
    INDEX 01 26:51:02
  TRACK 09 AUDIO
    TITLE "Why Is That?"
    PERFORMER "Jamala"
    INDEX 01 29:36:45
  TRACK 10 AUDIO
    TITLE "I'm Like A Bird"
    PERFORMER "Jamala"
    INDEX 01 33:48:73
  TRACK 11 AUDIO
    TITLE "Hurt"
    PERFORMER "Jamala"
    INDEX 01 37:22:62
  TRACK 12 AUDIO
    TITLE "Unutmasan"
    PERFORMER "Jamala"
    INDEX 01 41:26:14

Этот торрент недоступен для скачивания без регистрации, однако доступен по публичной magnet-ссылке (источники с публичных трекеров). Перед использованием ссылки прочтите, пожалуйста Пользовательское соглашение, а также как можно дольше оставайтесь на раздаче! Для того, чтобы скачать сам торрент-файл (который видит больше источников), а также для того, чтобы поблагодарить релизера, вам необходимо зарегистрироваться. Если регистрироваться лень - вы можете также попробовать скачать релиз по нашим партнерским ссылкам ниже. Кроме того, зарегистрированным пользователям не показывается всплывающая реклама при скачивании.

[underverse.su].t74183.torrent
Трекер: Зарегистрирован   [ 21.11.2016 16:48 ]  

Статус: проверено (by Бишеп at 21.11.2016 16:49)
Поблагодарили: пока никто не поблагодарил...
Тип торрента: публичный - доступные источники с открытых трекеров: 
Размер: 322 MB (занимает 0,07 DVDR, для записи нужно 1 болванка DVDR/RW)
 
 
Похожие темы
Форум Тема Автор Торрент Отв. Посл. сооб.
Зарубежная Pop Музыка (Pop, Jazz) Barbra Streisand - Back To Brooklyn (2013) [MP3, 320 kbps] 90ytr90
2 | 0

0 | 493

4

26.11.2016 15:28

Зарубежная Pop Музыка (Pop, Jazz, Holiday) Barbra Streisand - The Classic Christmas Album (2013) [MP3, 320 kbps] 90ytr90
2 | 1

0 | 522

2

11.11.2016 21:54

Зарубежная Pop Музыка (Pop, Jazz) Donna Lewis - Brand New Day (2015) [MP3, 320 kbps] 90ytr90
1 | 0

0 | 421

1

08.11.2016 14:39

Зарубежная Pop Музыка (Pop, Jazz, Soul) Haley Reinhart - Better (2016) [MP3, 320 kbps] 90ytr90
1 | 0

0 | 578

2

05.11.2016 13:34

Отечественная Pop Музыка (Pop, Jazz) Варвара Визбор - Варежка (2016) [MP3, 320 kbps CBR] Evgenii82
11 | 1

1 | 927

8

01.11.2016 22:40

Зарубежная Поп Музыка (Lossless) (Pop, Jazz, Easy Listening) Rumer - Into Colour (2015) [FLAC (Image+.Cue), Lossless] Бишеп
3 | 0

0 | 780

1

11.11.2016 19:44

Зарубежная Поп Музыка (Lossless) (Pop, Jazz, Lounge) Flabby - I'm Feeling Good Today (2014) [FLAC (Image+.CUE), Lossless] Бишеп
1 | 0

0 | 1205

11

15.03.2014 05:33

Сборники (Pop, Jazz, Rock, Soft Rock, Vocal) VA - Lazy Sunday (2004) [FLAC (Tracks+.CUE), lossless] Direktor
0 | 0

0 | 872

4

02.08.2016 07:08


Яндекс.Метрика powered by Sphinx


В Н И М А Н И Е
Сайт не распространяет и не хранит электронные версии произведений, а лишь бесплатно и без коммерческой выгоды (не требуя взамен платы,
SMS и т.д.) предоставляет доступ к создаваемому пользователями каталогу ссылок на торрент-файлы, которые содержат только списки хеш-сумм.
Убедительная просьба с жалобами обращаться напрямую к пользователю, разместившему торрент файл.

Вверх