Loading...
Error

Александр Блок. Я медленно сходил с ума (Анна Филимонова) [2016 г., документальный, биография, SatRip]

Статистика раздачи
Размер:  718 MB   |    Зарегистрирован:  14 дней   |    Скачан:  0 раз

Полного источника не было: 14 дней

Сидов:  0  |  0 KB/s  ]   Личеров:  0  |  0 KB/s  ]

* - сиды/пиры с внешних источников

   
 
Автор Сообщение

ARI71 Пол:Муж

21-Ноя-2016 14:54

Александр Блок. Я медленно сходил с ума


Год выпуска: 2016
Жанр: документальный, биография
Страна: Россия Первый канал
Режиссер: Анна Филимонова
Сюжет фильма:
Его слава не знала границ, где бы он не выступал, его слушали, затаив дыхание. Его по праву называли поэтом серебряного века номер один. Почему его личная жизнь давала повод для сплетен? По официальной версии у Блока не было детей, но так ли это на самом деле? Что погубило поэта, и можно ли было его спасти? Необъяснимые поступки, страстные романы, и роковые заблуждения, Блоку можно простить всё, за его стихи.

Алекса́ндр Алекса́ндрович Блок (16 (28) ноября 1880, Санкт-Петербург, Российская империя — 7 августа 1921, Петроград, РСФСР) — русский поэт, писатель, публицист, драматург, переводчик, литературный критик. Классик русской литературы XX столетия.
Качество видео: SatRip

Продолжительность: 00:51:56
Формат: AVI
Видео: XviD, 704x448, 1794 kbps
Аудио: русский, AC3 2.0, 128 kbps

Код:

Общее
Полное имя : D:\Blok.16.11.2016..avi
Формат : AVI
Формат/Информация : Audio Video Interleave
Размер файла : 718 Мбайт
Продолжительность : 51 м.
Общий поток : 1932 Кбит/сек
Программа кодирования : VirtualDubMod 1.5.10.3 | www.virtualdub-fr.org || (build 2550/release)
Библиотека кодирования : VirtualDub build 29808/release

Видео
Идентификатор : 0
Формат : MPEG-4 Visual
Профиль формата : Advanced Simple@L5
Параметр BVOP формата : 2
Параметр QPel формата : Нет
Параметр GMC формата : Без точки перехода
Параметр матрицы формата : Default (H.263)
Идентификатор кодека : XVID
Идентификатор кодека/Подсказка : XviD
Продолжительность : 51 м.
Битрейт : 1794 Кбит/сек
Ширина : 704 пикселя
Высота : 448 пикселей
Соотношение сторон : 16:10
Частота кадров : 25,000 кадров/сек
Цветовое пространство : YUV
Субдискретизация насыщенности : 4:2:0
Битовая глубина : 8 бит
Тип развёртки : Прогрессивная
Метод сжатия : С потерями
Бит/(Пиксели*Кадры) : 0.228
Размер потока : 667 Мбайт (93%)
Библиотека кодирования : XviD 73

Аудио
Идентификатор : 1
Формат : AC-3
Формат/Информация : Audio Coding 3
Расширение режима : CM (complete main)
Параметр Endianness формата : Big
Идентификатор кодека : 2000
Продолжительность : 51 м.
Вид битрейта : Постоянный
Битрейт : 128 Кбит/сек
Каналы : 2 канала
Расположение каналов : Front: L R
Частота : 48,0 КГц
Частота кадров : 31,250 кадров/сек (1536 spf)
Метод сжатия : С потерями
Размер потока : 47,6 Мбайт (7%)
Выравнивание : Разделение по промежуткам
Продолжительность промежутка : 40 мс. (1,00 видеокадр)
Время предзагрузки промежутка : 500 мс.
picpicpicpicpic
Для увеличения картинки щелкните мышкой по превью

Этот торрент недоступен для скачивания без регистрации, однако доступен по публичной magnet-ссылке (источники с публичных трекеров). Перед использованием ссылки прочтите, пожалуйста Пользовательское соглашение, а также как можно дольше оставайтесь на раздаче! Для того, чтобы скачать сам торрент-файл (который видит больше источников), а также для того, чтобы поблагодарить релизера, вам необходимо зарегистрироваться. Если регистрироваться лень - вы можете также попробовать скачать релиз по нашим партнерским ссылкам ниже.

[underverse.su].t74175.torrent
Трекер: Зарегистрирован   [ 21.11.2016 14:54 ]  

Статус: проверено (by ARI71 at 21.11.2016 14:58)
Поблагодарили: пока никто не поблагодарил...
Тип торрента: публичный - доступные источники с открытых трекеров: 
Размер: 718 MB (занимает 0,16 DVDR, для записи нужно 1 болванка DVDR/RW)
 
 
Похожие темы
Форум Тема Автор Торрент Отв. Посл. сооб.
Зарубежное кино [DVDRip, Low-Res HDRip, и т.д.] Александр / Alexander (Оливер Стоун) [2004 г., боевик, мелодрама, драма, приключения, военный, биография, история, ..., HD DVDRip] Joey
1 | 0

1 | 1201

7

17.06.2010 12:55

Зарубежное кино [DVDRip, Low-Res HDRip, и т.д.] Александр / Alexander (Оливер Стоун) [2004 г., боевик, драма, мелодрама, приключения, военный, биография, история, HDRip ] Dub ryzhkovroman
0 | 0

6 | 1280

1

18.02.2013 17:27

Зарубежное кино [DVDRip, Low-Res HDRip, и т.д.] Александр и ужасный, кошмарный, нехороший, очень плохой день / Alexander and the Terrible, Horrible, No Good, Very Bad Day (Мигель Артета / Miguel Arteta) [2014 г., комедия, семейный, HDRip] Dub 90ytr90
18 | 0

0 | 431

14

09.02.2015 16:55

Зарубежное кино [DVDRip, Low-Res HDRip, и т.д.] Александр и ужасный, кошмарный, нехороший, очень плохой день / Alexander and the Terrible, Horrible, No Good, Very Bad Day (Мигель Артета / Miguel Arteta) [2014 г., комедия, семейный, HDRip] Dub 90ytr90
1 | 0

0 | 463

8

09.02.2015 17:33

Кино СССР Александр Невский (Сергей Эйзенштейн, Дмитрий Васильев, Борис Иванов) [1938 г., история, DVDRip] 90ytr90
2 | 0

0 | 844

6

06.12.2014 21:56

Информационно-аналитические передачи Александр Невзоров: "Уроки атеизма" [2012 г., документальный, TVRip] матроскин
0 | 0

1 | 1297

6

27.04.2013 06:30

Исторические фильмы Александр Великий / Alexander der Grobe (1-2 серии из 2) / (Мартин Казаро Мендез, Кристиан Твенте) [2014 г., документальный, игровой, история, SatRip] DVO (Видеофильм ТВ) ARI71
5 | 0

1 | 430

5

16.10.2016 08:07

Личности Александр Кайдановский. По лезвию бритвы (Лариса Кичаева) [2016 г., документальный, кинематограф, биография, IPTVRip] ARI71
4 | 0

1 | 553

1

02.10.2016 18:01

Личности Александр Зацепин. Этот мир придуман не мной (Филипп Сурков) [2010 г., документальный, биография, искусство, культура, SatRip] ARI71
0 | 0

0 | 637

1

21.07.2016 18:16

Личности Александр Кайдановский. Сжимая лезвие в ладони (Вера Травкина) [2016 г., документальный, биография, SatRip] ARI71
0 | 0

0 | 558

6

23.07.2016 09:00


Яндекс.Метрика powered by Sphinx


В Н И М А Н И Е
Сайт не распространяет и не хранит электронные версии произведений, а лишь бесплатно и без коммерческой выгоды (не требуя взамен платы,
SMS и т.д.) предоставляет доступ к создаваемому пользователями каталогу ссылок на торрент-файлы, которые содержат только списки хеш-сумм.
Убедительная просьба с жалобами обращаться напрямую к пользователю, разместившему торрент файл.

Вверх