Loading...
Error

Жизнь млекопитающих / The Life of Mammals (9 серий из 10) / (Марк Линфилд, Нил Лукас) [2002-2003 г., документальный, природа, фауна, HDTVRip 720p] VO + Original (Eng)

Статистика раздачи
Размер:  11,95 GB   |    Зарегистрирован:  16 дней   |    Скачан:  2 раза

Полного источника не было: 12 дней

Сидов:  0  |  0 KB/s  ]   Личеров:  0  |  0 KB/s  ]

* - сиды/пиры с внешних источников

   
 
Автор Сообщение

ARI71 Пол:Муж

21-Ноя-2016 12:36

Жизнь млекопитающих / The Life of Mammals (9 серий из 10)


Год выпуска: 2002-2003
Жанр: документальный, природа, фауна
Страна: Великобритания BBC
Режиссер: Марк Линфилд, Нил Лукас
Ведущий: сэр Дэвид Аттенборо
Сюжет фильма:
Наиболее полное и всестороннее изучение мира млекопитающих. Благодаря новым технологиям кинематографии, великолепной работе операторов, а так же кропотливой и упорной работе ученых-исследователей, стало возможным совершить это уникальное захватывающее и познавательное путешествие в страну таких разных, ярких и забавных, свирепых и опасных представителей животного мира, тем не менее представляющих одну большую семью — семью млекопитающих.
Покрытые тёплым мехом, защищающие и вскармливающие своё потомство млекопитающие достаточно быстро расселились во всех уголках земного шара — тёплых и холодных, влажных и высушенных солнцем. Адаптируясь на новом месте, млекопитающие не только изменялись сами, но и таким же образом изменяли окружающий мир, придавая ему особую неповторимость.


Качество видео: HDTVRip 720p

Продолжительность: 9 x ~00:49:00
Формат: MKV
Видео: AVC (x264), 1280x720, ~3500 kbps
Аудио #1: русский, одноголосый закадровый [профессиональный], AC3 2.0, ~192.00 kbps
Аудио #2: английский, [оригинал], AC3 2.0, ~192.00 kbps
(тех. данные всех серий идентичны)

Автор рипа: skorpionN

Код:

Общее
Уникальный идентификатор : 221376813894587409533661648201118455218 (0xA68B9F9CDC7A6BEBA02EFCB455C515B2)
Полное имя : D:\BBC_The Life of Mammals_720p\01_A Winning Design.mkv
Формат : Matroska
Версия формата : Version 4 / Version 2
Размер файла : 1,33 Гбайт
Продолжительность : 49 м.
Режим общего битрейта : Переменный
Общий поток : 3871 Кбит/сек
Дата кодирования : UTC 2016-11-18 12:02:20
Программа кодирования : mkvmerge v7.3.0 ('Nouages') 64bit built on Oct 22 2014 18:53:34
Библиотека кодирования : libebml v1.3.0 + libmatroska v1.4.1

Видео
Идентификатор : 1
Формат : AVC
Формат/Информация : Advanced Video Codec
Профиль формата : High@L4.1
Параметр CABAC формата : Да
Параметр ReFrames формата : 3 кадра
Идентификатор кодека : V_MPEG4/ISO/AVC
Продолжительность : 49 м.
Вид битрейта : Переменный
Битрейт : 3500 Кбит/сек
Максимальный битрейт : 8000 Кбит/сек
Ширина : 1280 пикселей
Высота : 720 пикселей
Соотношение сторон : 16:9
Режим частоты кадров : Постоянный
Частота кадров : 25,000 кадров/сек
Стандарт вещания : NTSC
Цветовое пространство : YUV
Субдискретизация насыщенности : 4:2:0
Битовая глубина : 8 бит
Тип развёртки : Прогрессивная
Бит/(Пиксели*Кадры) : 0.152
Размер потока : 1,17 Гбайт (88%)
Библиотека кодирования : x264 core 114
Настройки программы : cabac=1 / ref=3 / deblock=1:0:0 / analyse=0x3:0x113 / me=hex / subme=7 / psy=1 / psy_rd=1.00:0.00 / mixed_ref=1 / me_range=16 / chroma_me=1 / trellis=1 / 8x8dct=1 / cqm=2 / deadzone=21,11 / fast_pskip=1 / chroma_qp_offset=-4 / threads=6 / sliced_threads=0 / slices=1 / nr=0 / decimate=1 / interlaced=0 / constrained_intra=0 / bframes=3 / b_pyramid=0 / b_adapt=1 / b_bias=0 / direct=1 / weightb=1 / open_gop=0 / weightp=2 / keyint=250 / keyint_min=25 / scenecut=40 / intra_refresh=0 / rc_lookahead=40 / rc=2pass / mbtree=1 / bitrate=3500 / ratetol=1.0 / qcomp=0.60 / qpmin=5 / qpmax=69 / qpstep=4 / cplxblur=20.0 / qblur=0.5 / vbv_maxrate=8000 / vbv_bufsize=7995 / nal_hrd=vbr / ip_ratio=1.40 / aq=1:1.00
Default : Да
Forced : Нет
Цветовой диапазон : Limited
Основные цвета : BT.709
Характеристики трансфера : BT.709
Коэффициенты матрицы : BT.709

Аудио #1
Идентификатор : 2
Формат : AC-3
Формат/Информация : Audio Coding 3
Расширение режима : CM (complete main)
Параметр Endianness формата : Big
Идентификатор кодека : A_AC3
Продолжительность : 49 м.
Вид битрейта : Постоянный
Битрейт : 192 Кбит/сек
Каналы : 2 канала
Расположение каналов : Front: L R
Частота : 48,0 КГц
Частота кадров : 31,250 кадров/сек (1536 spf)
Метод сжатия : С потерями
Размер потока : 67,4 Мбайт (5%)
Язык : Russian
Default : Да
Forced : Нет

Аудио #2
Идентификатор : 3
Формат : AC-3
Формат/Информация : Audio Coding 3
Расширение режима : CM (complete main)
Параметр Endianness формата : Big
Идентификатор кодека : A_AC3
Продолжительность : 49 м.
Вид битрейта : Постоянный
Битрейт : 192 Кбит/сек
Каналы : 2 канала
Расположение каналов : Front: L R
Частота : 48,0 КГц
Частота кадров : 31,250 кадров/сек (1536 spf)
Метод сжатия : С потерями
Размер потока : 67,4 Мбайт (5%)
Язык : English
Default : Нет
Forced : Да
01. Совершенная модель / A Winning Design
Теплокровие - ключевой фактор, который позволил млекопитающим выжить на земле и создать сложнейшее тело во всем животном королевстве. Тело млекопитающего - поистине совершенная модель. Существует более 4 тысяч видов млекопитающих, которые и в воде, и на суше, и в воздухе - везде чувствуют себя "как дома".

02. Насекомоядные / Insect Hunters
Успех и выживаемость млекопитающих во многом зависит от пищи, которую они добывают. Наиболее древние млекопитающие, населяющие нашу планету - насекомоядные. И по сей день, существуют виды, сохранившие свой первоначальный облик со времен динозавров - это землеройки. Они охотились на насекомых по ночам, пока их соседи гигантские ящеры спали.

03. Травоядные / Plant Predators
Изобилие растительности на нашей планете привело к появлению и процветанию травоядных животных. Для того чтобы тщательно пережевывать пищу, эти животные вооружены плоскими и широкими зубами. Растительная пища менее питательна, чем белковая, поэтому травоядные животные вынуждены съедать в течение дня огромное количество растений.

04. Грызуны / Chisellers
Отряд грызунов является самым многочисленным из всех млекопитающих. Зубы грызуна покрыты твердой эмалью, но только с передней стороны. Задняя и внутренняя части зубов состоят из мягкого дентина. Имея дело с твердой пищей, дентин стирается значительно быстрее эмали, всегда оставляя зубы грызуна острыми как резец столяра.

05. Плотоядные / Meat Eaters
Плотоядные (или хищники) делятся на 2 больших вида - кошачьих и собак. Все они в совершенстве владеют техникой преследования и искусством смертельной атаки. Первые плотоядные появились на Земле примерно 150 млн. лет назад.

06. Преимущества / Opportunists
Всем известно, что хорошее питание - залог выживания. Именно поэтому всеядные млекопитающие - самые приспособленные животные в мире. Потребляемая ими пища максимально разнообразна. Одними из самых ярких и опасных представителей всеядных являются медведи.

07. Назад к воде / Return to the Water
Почти все млекопитающие приходят к воде, чтобы напиться, очень многие из них умеют плавать. Но есть среди них и такие, для которых вода стала родным домом. Когда они начали свою эволюцию на четырех лапах и с телом, нуждающимся в тепле, а сейчас эти млекопитающие обзавелись ластами и прочно обосновались во всех водоемах нашей планеты.

08. Жизнь на деревьях / Life in the Trees
Способность ловко лазить по деревьям очень важна для безопасности многих млекопитающих, а для некоторых из них просто жизненно необходима. Но для этого им нужны специальные приспособления - цепкие лапы, чтобы держаться за ветви, и длинный хвост, помогающий удерживать равновесие.

09. Карьеристы / Social Climbers
По сравнению с другими млекопитающими, обезьяны ведут очень активную жизнь. Большую часть времени они уделяют общению и множественным ритуалам, что помогает им двигаться вверх по общественной лестнице. Самая важная отличительная черта обезьян - умение быстро оценить возможность и использовать ее.

10. Пища для размышлений / Food for Thought (not broadcast) ОТСУТСТВУЕТ
picpicpicpicpic
Для увеличения картинки щелкните мышкой по превью

Этот торрент недоступен для скачивания без регистрации, однако доступен по публичной magnet-ссылке (источники с публичных трекеров). Перед использованием ссылки прочтите, пожалуйста Пользовательское соглашение, а также как можно дольше оставайтесь на раздаче! Для того, чтобы скачать сам торрент-файл (который видит больше источников), а также для того, чтобы поблагодарить релизера, вам необходимо зарегистрироваться. Если регистрироваться лень - вы можете также попробовать скачать релиз по нашим партнерским ссылкам ниже.

[underverse.su].t74174.torrent
Трекер: Зарегистрирован   [ 21.11.2016 12:36 ]  

Статус: проверено (by ARI71 at 21.11.2016 12:41)
Поблагодарили: пока никто не поблагодарил...
Тип торрента: публичный - доступные источники с открытых трекеров: 
Размер: 11,95 GB (занимает 2,73 DVDR, для записи нужно 3 болванки DVDR/RW)
 
 

ARI71 Пол:Муж

21-Ноя-2016 12:43

Приятного всем просмотра!

Голосуй за трекер!!




Яндекс.Метрика powered by Sphinx


В Н И М А Н И Е
Сайт не распространяет и не хранит электронные версии произведений, а лишь бесплатно и без коммерческой выгоды (не требуя взамен платы,
SMS и т.д.) предоставляет доступ к создаваемому пользователями каталогу ссылок на торрент-файлы, которые содержат только списки хеш-сумм.
Убедительная просьба с жалобами обращаться напрямую к пользователю, разместившему торрент файл.

Вверх