Loading...
Error

Гиганты мира животных / How Big Can It Get? (1-3 серии из 3) / (Мэтт Кристенсен) [2011 г., документальный, фауна, природа, HDTVRip] Dub (АРК ТВ)

Статистика раздачи
Размер:  1,9 GB   |    Зарегистрирован:  12 дней   |    Скачан:  0 раз

Полного источника не было: 8 дней

Сидов:  0  |  0 KB/s  ]   Личеров:  0  |  0 KB/s  ]

* - сиды/пиры с внешних источников

   
 
Автор Сообщение

ARI71 Пол:Муж

21-Ноя-2016 11:39

Гиганты мира животных / How Big Can It Get? (1-3 серии из 3)


Год выпуска: 2011
Жанр: документальный, фауна, природа
Страна: США Hoff Productions
Режиссер: Мэтт Кристенсен
Текст читал: Игорь Тарадайкин
Сюжет фильма:
Новый документальный сериал от National Geographic о самых крупных представителях животного мира. Рычащий 200 фунтовый комодский дракон; питоны, настолько большие, что готовы проглотить жертву целиком; крокодилы, которые достигают ошеломляющие 25 футов в длину. Даже в руках экспертов, все они крайне опасные хищники. Что происходит, когда такой хищник получает вкус к человеческой плоти?


Качество видео: HDTVRip

Продолжительность: 3 х ~00:44:59
Формат: AVI
Видео: XviD, 720x400, ~1800 kbps
Аудио: русский, дублированный [АРК ТВ], AC3 2.0, ~192 kbps
(тех. данные всех серий идентичны)

Автор рипа: skorpionN

Код:

Общее
Полное имя : D:\How_Big_Can_It_Get_[bittracker]\01_Snakezilla.avi
Формат : AVI
Формат/Информация : Audio Video Interleave
Размер файла : 644 Мбайт
Продолжительность : 44 м.
Общий поток : 2002 Кбит/сек
Программа кодирования : VirtualDubMod 1.5.10.2 (build 2540/release)
Библиотека кодирования : VirtualDubMod build 2540/release

Видео
Идентификатор : 0
Формат : MPEG-4 Visual
Профиль формата : Advanced Simple@L5
Параметр BVOP формата : 2
Параметр QPel формата : Нет
Параметр GMC формата : Без точки перехода
Параметр матрицы формата : Default (H.263)
Идентификатор кодека : XVID
Идентификатор кодека/Подсказка : XviD
Продолжительность : 44 м.
Битрейт : 1800 Кбит/сек
Ширина : 720 пикселей
Высота : 400 пикселей
Соотношение сторон : 16:9
Частота кадров : 25,000 кадров/сек
Цветовое пространство : YUV
Субдискретизация насыщенности : 4:2:0
Битовая глубина : 8 бит
Тип развёртки : Прогрессивная
Метод сжатия : С потерями
Бит/(Пиксели*Кадры) : 0.250
Размер потока : 579 Мбайт (90%)
Библиотека кодирования : XviD 1.2.0.dev47 (UTC 2006-11-01)

Аудио
Идентификатор : 1
Формат : AC-3
Формат/Информация : Audio Coding 3
Расширение режима : CM (complete main)
Параметр Endianness формата : Big
Идентификатор кодека : 2000
Продолжительность : 44 м.
Вид битрейта : Постоянный
Битрейт : 192 Кбит/сек
Каналы : 2 канала
Расположение каналов : Front: L R
Частота : 48,0 КГц
Частота кадров : 31,250 кадров/сек (1536 spf)
Метод сжатия : С потерями
Размер потока : 61,8 Мбайт (10%)
Выравнивание : Разделение по промежуткам
Продолжительность промежутка : 40 мс. (1,00 видеокадр)
Время предзагрузки промежутка : 500 мс.
01. Самая большая змея / Snakezilla
Титанобоа (лат. Titanoboa cerrejonensis, что в переводе означает "колоссальный боа из Керрехона") - это вымерший вид змей. Судя по строению скелета, она являлась близким родственником удава. Обитала в Колумбии около 58 - 60 миллионов лет назад. Ископаемые останки змеи были обнаружены в угольной шахте, близ местечка Керрехон. Канадские и американские учёные зоологи, проделав сравнительный анализ скелета, пришли к выводу, что змея могла доходить до 13 метров в длину и весить более тонны. На сегодняшний день самой большой змеёй является сетчатый питон, который может достигать в длину более 10 метров и весить свыше 135 кг.

02. Самый большой крокодил / Croczilla
Зоолог Адам Бриттон пытается понять, почему места обитания массивных морских крокодилов все больше приближаются к населенной местности Австралии.

03. Самая большая ящерица / Komodozilla
В этой серии Вы познакомитесь с комодским вараном, одним из самых мощных хищников, вес которых достигает 90 кг. Но его предок, мегалания (лат. Megalania prisca или Varanus priscus или "гигантский мясник"), был еще больше. Мегалания - крупнейшая из известных науке наземных ящериц длиной приблизительно 5 - 7 метров и весом около 400 кг. Этот вид обитал в Австралии, в плейстоценовую эпоху. По утверждению учёных, эти ящерицы вымерли приблизительно 40 тыс. лет назад - именно в то время, когда на континент прибыли первые люди.
picpicpicpicpic
Для увеличения картинки щелкните мышкой по превью

Этот торрент недоступен для скачивания без регистрации, однако доступен по публичной magnet-ссылке (источники с публичных трекеров). Перед использованием ссылки прочтите, пожалуйста Пользовательское соглашение, а также как можно дольше оставайтесь на раздаче! Для того, чтобы скачать сам торрент-файл (который видит больше источников), а также для того, чтобы поблагодарить релизера, вам необходимо зарегистрироваться. Если регистрироваться лень - вы можете также попробовать скачать релиз по нашим партнерским ссылкам ниже.

[underverse.su].t74171.torrent
Трекер: Зарегистрирован   [ 21.11.2016 11:39 ]  

Статус: проверено (by ARI71 at 21.11.2016 11:44)
Поблагодарили: пока никто не поблагодарил...
Тип торрента: публичный - доступные источники с открытых трекеров: 
Размер: 1,9 GB (занимает 0,43 DVDR, для записи нужно 1 болванка DVDR/RW)
 
 

Яндекс.Метрика powered by Sphinx


В Н И М А Н И Е
Сайт не распространяет и не хранит электронные версии произведений, а лишь бесплатно и без коммерческой выгоды (не требуя взамен платы,
SMS и т.д.) предоставляет доступ к создаваемому пользователями каталогу ссылок на торрент-файлы, которые содержат только списки хеш-сумм.
Убедительная просьба с жалобами обращаться напрямую к пользователю, разместившему торрент файл.

Вверх